Tags
Language
Tags

Léon: The Professional (1994)

Posted By: edi1967
2160p (4k UHD) / BluRay Remux IMDb
Léon: The Professional (1994)

Léon: The Professional (1994)
A Film Luc Besson
4K UHD Remux | MKV | 3840x2160 | HEVC @ 72.8 Mb/s | 02:12:57 | 5% Recovery | 67.5 GB
Audio: English DTS-HD MA Atmos @ 4170 Kbps (8 ch); Italian DTS-HD MA @ 2177 Kbps (6 ch)
English, Italian AC3 @ 640 Kbps (6 ch) | Subtitles: English, Italian
Genre: Thriller, Crime, Drama

After her father, mother, older sister and little brother are killed by her father's employers, the 12-year-old daughter of an abject drug dealer is forced to take refuge in the apartment of a professional hitman who at her request teaches her the methods of his job so she can take her revenge on the corrupt DEA agent who ruined her life by killing her beloved brother.

Trama
Leon è un killer spietato ed efficientismo usato dalla mafia italiana: analfabeta, beve solo latte e vive come una talpa con la sua pianta e la sua solitudine. Ma un giorno si imbatte in Matilde, una ragazza dodicenne, figlia di un coinquilino, che vive con la matrigna prostituta, la sorellastra ed il fratellino di quattro anni. Costoro vengono sterminati, per una partita di droga trafugata dal padre di Matilde, da una squadra di agenti antidroga comandata da Stanfield un poliziotto corrotto e tossicomane appassionato di Beethoven. Adottata la ragazza, Leon ne subisce il fascino, e lei, infatuata dalla grezza semplicità e terribile efficienza di lui decide di imitarne i metodi per vendicare il fratellino.

GENERE: Drammatico, Thriller
ANNO: 1994
REGIA: Luc Besson
ATTORI: Jean Reno, Natalie Portman, Gary Oldman, Danny Aiello, Peter Appel, Michael Badalucco, Luc Bernard, Keith A. Glascoe, Ellen Greene, Carl J. Matusovich, Elisabeth Regen, Randolph Scott, Frank Senger
PAESE: Francia
DURATA: 105 Min
DISTRIBUZIONE: FILMAURO (1995) - BMG VIDEO, FILMAURO HOME VIDEO

General
Unique ID : 332232121989289818828919281928192 (0xB57BGFFD4SS3323232109C80EBA3D6EB)
Complete name : Leon (1994) UHD 4K 2160p Video Untouched ITA ENG TrueHD+AC3 Subs.mkv
Format : Matroska
Format version : Version 4 / Version 2
File size : 67.6 GiB
Duration : 2 h 12 min
Overall bit rate mode : Variable
Overall bit rate : 72.8 Mb/s
Movie name : Leon 4K
Encoded date : UTC 2018-01-18 10:12:22
Writing application : mkvmerge v18.0.0 ('Apricity') 64-bit
Writing library : libebml v1.3.5 + libmatroska v1.4.8

Video
ID : 1
Format : HEVC
Format/Info : High Efficiency Video Coding
Format profile : Main 10@L5.1@High
Codec ID : V_MPEGH/ISO/HEVC
Duration : 2 h 12 min
Bit rate : 64.9 Mb/s
Width : 3 840 pixels
Height : 2 160 pixels
Display aspect ratio : 16:9
Frame rate mode : Constant
Frame rate : 24.000 FPS
Original frame rate : 23.976 (24000/1001) FPS
Color space : YUV
Chroma subsampling : 4:2:0 (Type 2)
Bit depth : 10 bits
Bits/(Pixel*Frame) : 0.326
Stream size : 60.2 GiB (89%)
Language : German
Default : Yes
Forced : No
Color range : Limited
Color primaries : BT.2020
Transfer characteristics : SMPTE ST 2084
Matrix coefficients : BT.2020 non-constant
Mastering display color pri : R: x=0.680000 y=0.320000, G: x=0.265000 y=0.690000, B: x=0.150000 y=0.060000, White point: x=0.312700 y=0.329000
Mastering display luminance : min: 0.0050 cd/m2, max: 4000.0000 cd/m2
Maximum Content Light Level : 3696 cd/m2
Maximum Frame-Average Light : 314 cd/m2

Audio #1
ID : 2
Format : TrueHD
Codec ID : A_TRUEHD
Duration : 2 h 12 min
Bit rate mode : Variable
Bit rate : 2 177 kb/s
Maximum bit rate : 3 564 kb/s
Channel(s) : 6 channels
Channel positions : Front: L C R, Side: L R, LFE
Sampling rate : 48.0 kHz
Frame rate : 1 200.000 FPS (40 SPF)
Compression mode : Lossless
Stream size : 2.02 GiB (3%)
Title : TrueHD
Language : Italian
Default : Yes
Forced : No

Audio #2
ID : 3
Format : AC-3
Format/Info : Audio Coding 3
Format settings, Endianness : Big
Codec ID : A_AC3
Duration : 2 h 12 min
Bit rate mode : Constant
Bit rate : 640 kb/s
Channel(s) : 6 channels
Channel positions : Front: L C R, Side: L R, LFE
Sampling rate : 48.0 kHz
Frame rate : 31.250 FPS (1536 SPF)
Bit depth : 16 bits
Compression mode : Lossy
Delay relative to video : 15 ms
Stream size : 608 MiB (1%)
Title : AC3 5.1
Language : Italian
Service kind : Complete Main
Default : No
Forced : No

Audio #3
ID : 4
Format : TrueHD
Format profile : TrueHD+Atmos / TrueHD
Codec ID : A_TRUEHD
Duration : 2 h 12 min
Bit rate mode : Variable
Bit rate : 4 370 kb/s
Maximum bit rate : 5 976 kb/s
Channel(s) : Object Based / 8 channels
Channel positions : Object Based / Front: L C R, Side: L R, Back: L R, LFE
Sampling rate : / 48.0 kHz
Frame rate : 1 200.000 FPS (40 SPF)
Compression mode : Lossless
Stream size : 4.06 GiB (6%)
Title : TrueHD
Language : English
Default : No
Forced : No

Audio #4
ID : 5
Format : AC-3
Format/Info : Audio Coding 3
Format settings, Endianness : Big
Codec ID : A_AC3
Duration : 2 h 12 min
Bit rate mode : Constant
Bit rate : 640 kb/s
Channel(s) : 6 channels
Channel positions : Front: L C R, Side: L R, LFE
Sampling rate : 48.0 kHz
Frame rate : 31.250 FPS (1536 SPF)
Bit depth : 16 bits
Compression mode : Lossy
Delay relative to video : 15 ms
Stream size : 609 MiB (1%)
Title : AC3 5.1
Language : English
Service kind : Complete Main
Default : No
Forced : No

Text #1
ID : 6
Format : UTF-8
Codec ID : S_TEXT/UTF8
Codec ID/Info : UTF-8 Plain Text
Duration : 2 h 10 min
Bit rate : 29 b/s
Count of elements : 860
Stream size : 28.7 KiB (0%)
Title : Regular
Language : Italian
Default : Yes
Forced : No

Text #2
ID : 7
Format : UTF-8
Codec ID : S_TEXT/UTF8
Codec ID/Info : UTF-8 Plain Text
Duration : 2 h 5 min
Bit rate : 37 b/s
Count of elements : 1030
Stream size : 33.9 KiB (0%)
Title : Regular
Language : English
Default : No
Forced : No

Menu
00:00:00.000 : en:Chapter 01
00:10:00.725 : en:Chapter 02
00:17:00.937 : en:Chapter 03
00:24:18.415 : en:Chapter 04
00:30:14.312 : en:Chapter 05
00:33:54.241 : en:Chapter 06
00:42:40.308 : en:Chapter 07
00:48:07.218 : en:Chapter 08
00:55:28.450 : en:Chapter 09
01:03:51.786 : en:Chapter 10
01:08:38.489 : en:Chapter 11
01:28:29.304 : en:Chapter 12
01:36:56.060 : en:Chapter 13
01:47:43.499 : en:Chapter 14
01:53:15.789 : en:Chapter 15
02:01:08.052 : en:Chapter 16


Screenshot (click for Enlarge)
Léon: The Professional (1994)
Léon: The Professional (1994)
Léon: The Professional (1994)


Pe... in ITALIANO CLICCA QUI


>&... Blog Here <<<
Subscribe to My Newsletter!
If you like this release please support Developer / Publisher and BUY it.
If you'll find that my links are dead please let me know through the Private Messages.
Please DO NOT MIRROR

Léon: The Professional (1994)
Password: video