Tags
Language
Tags

Will It Snow for Christmas? / Y'aura t'il de la neige à Noël? (1996) [British Film Institute]

Posted By: RSU75
1080p (FullHD) / BDRip IMDb
Will It Snow for Christmas? / Y'aura t'il de la neige à Noël? (1996) [British Film Institute]

Will It Snow for Christmas? / Y'aura t'il de la neige à Noël? (1996) [British Film Institute]
BDRip | MKV | AVC, 1800x1080, ~ 4.0 Mbps | 1hr 31mn | 3.64 GB
French (Français): DTS, 6 ch, 1510 kbps; French (Français): AC3, 2 ch, 256 kbps
BDRip | MKV | AVC, 1200x720, ~ 2.9 Mbps | 1hr 31mn | 2.27 MB
French (Français): AC3, 6 ch, 448 kbps; French (Français): AC3, 2 ch, 256 kbps
Subtitles: English
Genre: Drama



Director: Sandrine Veysset
Writers: Sandrine Veysset (scenario and dialogue), Antoinette de Robien (adaptation) (co-writer)
Stars: Dominique Reymond, Daniel Duval, Jessica Martinez

Film Distributor: BFI (British Film Institute)

A woman and her seven children live on a farm in Southern France. In spite of the hard work and the mediocre accommodation, their life would be a happy one, but for one person: the owner of the farm an egotistic and authoritarian individual, who is also the lover of the woman and the father of all her children. The farmer handles them as his property, uses them as cheap labour to work in the fields, and denies them the right to leave the farm. It is only the love of the woman for her children that allows them to endure their situation; but even for her, disenchantment has set in.

Extras:
- None




General
Unique ID : 172367597062417154039253602308250463131 (0x81ACCAAA640FACD39F1D6B8BC6F8EB9B)
Complete name : F:\WillItSnowForChristmas.1996.BFI.1p\WillItSnowForChristmas.1996.BFI.1p.mkv
Format : Matroska
Format version : Version 4
File size : 3.64 GiB
Duration : 1 h 31 min
Overall bit rate : 5 720 kb/s
Movie name : Release RSU75
Encoded date : UTC 2020-08-05 17:16:10
Writing application : mkvmerge v6.6.0 ('The Edge Of The In Between') built on Dec 1 2013 17:55:00
Writing library : libebml v1.3.0 + libmatroska v1.4.1

Video
ID : 1
Format : AVC
Format/Info : Advanced Video Codec
Format profile : High@L4.1
Format settings : CABAC / 4 Ref Frames
Format settings, CABAC : Yes
Format settings, Reference fra : 4 frames
Codec ID : V_MPEG4/ISO/AVC
Duration : 1 h 31 min
Bit rate : 4 000 kb/s
Width : 1 800 pixels
Height : 1 080 pixels
Display aspect ratio : 5:3
Frame rate mode : Constant
Frame rate : 24.000 FPS
Color space : YUV
Chroma subsampling : 4:2:0
Bit depth : 8 bits
Scan type : Progressive
Bits/(Pixel*Frame) : 0.086
Stream size : 2.44 GiB (67%)
Writing library : x264 core 148 r2643 5c65704
Encoding settings : cabac=1 / ref=4 / deblock=1:0:0 / analyse=0x3:0x113 / me=umh / subme=8 / psy=1 / psy_rd=1.00:0.00 / mixed_ref=1 / me_range=24 / chroma_me=1 / trellis=1 / 8x8dct=1 / cqm=0 / deadzone=21,11 / fast_pskip=1 / chroma_qp_offset=-2 / threads=3 / lookahead_threads=1 / sliced_threads=0 / nr=0 / decimate=1 / interlaced=0 / bluray_compat=0 / constrained_intra=0 / bframes=3 / b_pyramid=0 / b_adapt=2 / b_bias=0 / direct=3 / weightb=1 / open_gop=0 / weightp=2 / keyint=250 / keyint_min=25 / scenecut=40 / intra_refresh=0 / rc_lookahead=40 / rc=abr / mbtree=1 / bitrate=4000 / ratetol=1.0 / qcomp=0.60 / qpmin=10 / qpmax=51 / qpstep=4 / ip_ratio=1.41 / aq=1:1.00
Language : English
Default : Yes
Forced : No
Duration_Source : General_Duration

Audio #1
ID : 2
Format : DTS
Format/Info : Digital Theater Systems
Codec ID : A_DTS
Duration : 1 h 31 min
Bit rate mode : Constant
Bit rate : 1 509 kb/s
Channel(s) : 6 channels
Channel layout : C L R Ls Rs LFE
Sampling rate : 48.0 kHz
Frame rate : 93.750 FPS (512 SPF)
Bit depth : 24 bits
Compression mode : Lossy
Stream size : 983 MiB (26%)
Title : Surround 5.1
Language : French
Default : Yes
Forced : No
Duration_Source : General_Duration

Audio #2
ID : 3
Format : AC-3
Format/Info : Audio Coding 3
Commercial name : Dolby Digital
Codec ID : A_AC3
Duration : 1 h 31 min
Bit rate mode : Constant
Bit rate : 256 kb/s
Channel(s) : 2 channels
Channel layout : L R
Sampling rate : 44.1 kHz
Frame rate : 28.711 FPS (1536 SPF)
Compression mode : Lossy
Stream size : 167 MiB (4%)
Title : Stereo
Language : French
Service kind : Complete Main
Default : No
Forced : No
Duration_Source : General_Duration

Text
ID : 4
Format : PGS
Muxing mode : zlib
Codec ID : S_HDMV/PGS
Codec ID/Info : Picture based subtitle format used on BDs/HD-DVDs
Language : English
Default : Yes
Forced : No

Menu
00:00:00.000 : en:Chapter 01
00:07:42.250 : en:Chapter 02
00:16:29.041 : en:Chapter 03
00:24:57.833 : en:Chapter 04
00:33:23.083 : en:Chapter 05
00:42:31.541 : en:Chapter 06
00:50:40.541 : en:Chapter 07
00:57:04.666 : en:Chapter 08
01:06:14.458 : en:Chapter 09
01:13:14.083 : en:Chapter 10
01:20:11.833 : en:Chapter 11
01:29:24.000 : en:Chapter 12






General
Unique ID : 175222883413511594084233559158888490312 (0x83D2B326CCE045F481C82B102EA66548)
Complete name : F:\WillItSnowForChristmas.1996.BFI.7p\WillItSnowForChristmas.1996.BFI.7p.mkv
Format : Matroska
Format version : Version 4
File size : 2.27 GiB
Duration : 1 h 31 min
Overall bit rate : 3 573 kb/s
Movie name : Release RSU75
Encoded date : UTC 2020-08-05 17:21:53
Writing application : mkvmerge v6.6.0 ('The Edge Of The In Between') built on Dec 1 2013 17:55:00
Writing library : libebml v1.3.0 + libmatroska v1.4.1

Video
ID : 1
Format : AVC
Format/Info : Advanced Video Codec
Format profile : High@L4.1
Format settings : CABAC / 4 Ref Frames
Format settings, CABAC : Yes
Format settings, Reference fra : 4 frames
Codec ID : V_MPEG4/ISO/AVC
Duration : 1 h 31 min
Bit rate : 2 900 kb/s
Width : 1 200 pixels
Height : 720 pixels
Display aspect ratio : 5:3
Frame rate mode : Constant
Frame rate : 24.000 FPS
Color space : YUV
Chroma subsampling : 4:2:0
Bit depth : 8 bits
Scan type : Progressive
Bits/(Pixel*Frame) : 0.140
Stream size : 1.78 GiB (78%)
Writing library : x264 core 148 r2643 5c65704
Encoding settings : cabac=1 / ref=4 / deblock=1:0:0 / analyse=0x3:0x113 / me=umh / subme=8 / psy=1 / psy_rd=1.00:0.00 / mixed_ref=1 / me_range=24 / chroma_me=1 / trellis=1 / 8x8dct=1 / cqm=0 / deadzone=21,11 / fast_pskip=1 / chroma_qp_offset=-2 / threads=3 / lookahead_threads=1 / sliced_threads=0 / nr=0 / decimate=1 / interlaced=0 / bluray_compat=0 / constrained_intra=0 / bframes=3 / b_pyramid=0 / b_adapt=2 / b_bias=0 / direct=3 / weightb=1 / open_gop=0 / weightp=2 / keyint=250 / keyint_min=25 / scenecut=40 / intra_refresh=0 / rc_lookahead=40 / rc=abr / mbtree=1 / bitrate=2900 / ratetol=1.0 / qcomp=0.60 / qpmin=10 / qpmax=51 / qpstep=4 / ip_ratio=1.41 / aq=1:1.00
Language : English
Default : Yes
Forced : No
Duration_Source : General_Duration

Audio #1
ID : 2
Format : AC-3
Format/Info : Audio Coding 3
Commercial name : Dolby Digital
Codec ID : A_AC3
Duration : 1 h 31 min
Bit rate mode : Constant
Bit rate : 448 kb/s
Channel(s) : 6 channels
Channel layout : L R C LFE Ls Rs
Sampling rate : 48.0 kHz
Frame rate : 31.250 FPS (1536 SPF)
Compression mode : Lossy
Stream size : 292 MiB (13%)
Title : Surround 5.1
Language : French
Service kind : Complete Main
Default : Yes
Forced : No
Duration_Source : General_Duration

Audio #2
ID : 3
Format : AC-3
Format/Info : Audio Coding 3
Commercial name : Dolby Digital
Codec ID : A_AC3
Duration : 1 h 31 min
Bit rate mode : Constant
Bit rate : 256 kb/s
Channel(s) : 2 channels
Channel layout : L R
Sampling rate : 44.1 kHz
Frame rate : 28.711 FPS (1536 SPF)
Compression mode : Lossy
Stream size : 167 MiB (7%)
Title : Stereo
Language : French
Service kind : Complete Main
Default : No
Forced : No
Duration_Source : General_Duration

Text
ID : 4
Format : PGS
Muxing mode : zlib
Codec ID : S_HDMV/PGS
Codec ID/Info : Picture based subtitle format used on BDs/HD-DVDs
Language : English
Default : Yes
Forced : No

Menu
00:00:00.000 : en:Chapter 01
00:07:42.250 : en:Chapter 02
00:16:29.041 : en:Chapter 03
00:24:57.833 : en:Chapter 04
00:33:23.083 : en:Chapter 05
00:42:31.541 : en:Chapter 06
00:50:40.541 : en:Chapter 07
00:57:04.666 : en:Chapter 08
01:06:14.458 : en:Chapter 09
01:13:14.083 : en:Chapter 10
01:20:11.833 : en:Chapter 11
01:29:24.000 : en:Chapter 12




Screenshots 1080p (click to enlarge to original size):

Will It Snow for Christmas? / Y'aura t'il de la neige à Noël? (1996) [British Film Institute]

Will It Snow for Christmas? / Y'aura t'il de la neige à Noël? (1996) [British Film Institute]

Will It Snow for Christmas? / Y'aura t'il de la neige à Noël? (1996) [British Film Institute]



Screenshots 720p (click to enlarge to original size):

Will It Snow for Christmas? / Y'aura t'il de la neige à Noël? (1996) [British Film Institute]





More in My Blog



If you like this release please visit my blog
In it you will find ALL the latest BFI releases