Tags
Language
Tags

NG. - What the Shark? (2020)

Posted By: notbanned
720p (HD) / HDTV
NG. - What the Shark? (2020)

NG. - What the Shark? (2020)
HDTV | 1280x720 | .MKV/AVC @ 3848 Kbps | 44 min 28 s | 1.24 GiB
Audio: English AAC 127 kbps, 2 channels | Subs: English
Genre: Documentary

This film is a deep dive - from the sunny beach to the 8000-foot abyss, where extreme adaptation is critical to survival. For sharks in this dark void, pressure, or a lack of it, could blow flesh to pieces, and inky darkness could mean NEVER finding prey. But these weirdsters have their act together. They're a ghostly cast of living monsters that defy the convention of life on Earth as we know it.

General
Unique ID : 251915170120537819645509012697048198994 (0xBD8518D23E3AA5F1C0DEF505D38CAF52)
Complete name : What.the.Shark.2020.720p.mkv
Format : Matroska
Format version : Version 4 / Version 2
File size : 1.24 GiB
Duration : 44 min 28 s
Overall bit rate : 3 977 kb/s

Video
ID : 1
Format : AVC
Format/Info : Advanced Video Codec
Format profile : High@L4.1
Format settings, CABAC : Yes
Format settings, ReFrames : 8 frames
Codec ID : V_MPEG4/ISO/AVC
Duration : 44 min 28 s
Bit rate : 3 848 kb/s
Width : 1 280 pixels
Height : 720 pixels
Display aspect ratio : 16:9
Frame rate mode : Constant
Frame rate : 25.000 FPS
Color space : YUV
Chroma subsampling : 4:2:0
Bit depth : 8 bits
Scan type : Progressive
Bits/(Pixel*Frame) : 0.167
Stream size : 1.20 GiB (97%)
Writing library : x264 core 160 r3009 4c9b076
Encoding settings : cabac=1 / ref=8 / deblock=1:-3:-3 / analyse=0x3:0x133 / me=umh / subme=9 / psy=1 / psy_rd=1.00:0.00 / mixed_ref=1 / me_range=16 / chroma_me=1 / trellis=2 / 8x8dct=1 / cqm=0 / deadzone=21,11 / fast_pskip=0 / chroma_qp_offset=-2 / threads=18 / lookahead_threads=1 / sliced_threads=0 / nr=0 / decimate=1 / interlaced=0 / bluray_compat=0 / constrained_intra=0 / bframes=3 / b_pyramid=2 / b_adapt=2 / b_bias=0 / direct=3 / weightb=1 / open_gop=0 / weightp=2 / keyint=250 / keyint_min=25 / scenecut=40 / intra_refresh=0 / rc_lookahead=60 / rc=crf / mbtree=1 / crf=18.0 / qcomp=0.60 / qpmin=0 / qpmax=69 / qpstep=4 / ip_ratio=1.40 / aq=1:0.80
Language : English
Default : Yes
Forced : No
Color range : Limited
Matrix coefficients : BT.709

Audio
ID : 2
Format : AAC
Format/Info : Advanced Audio Codec
Format profile : HE-AAC / LC
Codec ID : A_AAC
Duration : 44 min 28 s
Bit rate : 127 kb/s
Channel(s) : 2 channels
Channel positions : Front: L R
Sampling rate : 48.0 kHz / 24.0 kHz
Frame rate : 23.438 FPS (1024 spf)
Compression mode : Lossy
Stream size : 40.3 MiB (3%)
Language : English
Default : Yes
Forced : No

Text
ID : 3
Format : UTF-8
Codec ID : S_TEXT/UTF8
Codec ID/Info : UTF-8 Plain Text
Duration : 44 min 19 s
Bit rate : 62 b/s
Count of elements : 510
Stream size : 20.2 KiB (0%)
Language : English
Default : No
Forced : No


Screenshots:

NG. - What the Shark? (2020)

NG. - What the Shark? (2020)

NG. - What the Shark? (2020)

NG. - What the Shark? (2020)