Tags
Language
Tags

BBC - What We Were Watching, Summer TV Classics (2020)

Posted By: notbanned
720p (HD) / HDTV
BBC - What We Were Watching, Summer TV Classics (2020)

BBC - What We Were Watching, Summer TV Classics (2020)
HDTV | 1280x720 | .MKV/AVC @ 5047 Kbps | 58 min 55 s | 2.13 GiB
Audio: English AAC 128 kbps, 2 channels | Subs: English
Genre: Documentary

Join Grace Dent on a televisual trip of a lifetime as she explores the sights, sounds and schedules of the great British summer. Grace’s epic journey covers everything that informs our attitudes to summertime, from the travel shows of the 60s and 70s, which first brought the world’s finest resorts into our living rooms, to Del and Rodney Trotter fooling about abroad and the high jinks of Hi-de-Hi!

She explores the influence that holiday camp staples like beauty contests and talent shows had on primetime programmes like Seaside Special, which attracted stars as iconic as Abba and Grace Jones. Away from the glitz and glamour, there’s a look at the notorious Notting Hill Carnival of 1976, where a celebration of colour ended in rioting that changed Britain’s race laws forever, and a trip to Ibiza in the 80s, where young Brits were discovering new ways of getting away from it all. Also abroad are the then-young cast of EastEnders, with a young Grant Mitchell showing how to hit the clubs of Spain in epic style – and of course, sun, sea and soap means a look at the show that really burned the BBC – Eldorado.

General
Unique ID : 91575057942888688399857324285220757723 (0x44E4B6F1AC01AAEDA7EA515FC0C220DB)
Complete name : What.We.Were.Watching-Summer.TV.Classics.2020.720p.mkv
Format : Matroska
Format version : Version 4 / Version 2
File size : 2.13 GiB
Duration : 58 min 55 s
Overall bit rate : 5 177 kb/s

Video
ID : 1
Format : AVC
Format/Info : Advanced Video Codec
Format profile : High@L3.2
Format settings, CABAC : Yes
Format settings, ReFrames : 4 frames
Codec ID : V_MPEG4/ISO/AVC
Duration : 58 min 54 s
Bit rate : 5 047 kb/s
Width : 1 280 pixels
Height : 720 pixels
Display aspect ratio : 16:9
Frame rate mode : Constant
Frame rate : 50.000 FPS
Color space : YUV
Chroma subsampling : 4:2:0
Bit depth : 8 bits
Scan type : Progressive
Bits/(Pixel*Frame) : 0.110
Stream size : 2.08 GiB (97%)
Language : English
Default : Yes
Forced : No
Color range : Limited
Color primaries : BT.709
Transfer characteristics : BT.709
Matrix coefficients : BT.709

Audio
ID : 2
Format : AAC
Format/Info : Advanced Audio Codec
Format profile : LC
Codec ID : A_AAC
Duration : 58 min 54 s
Bit rate : 128 kb/s
Channel(s) : 2 channels
Channel positions : Front: L R
Sampling rate : 48.0 kHz
Frame rate : 46.875 FPS (1024 spf)
Compression mode : Lossy
Delay relative to video : -20 ms
Stream size : 53.9 MiB (2%)
Language : English
Default : Yes
Forced : No

Text
ID : 3
Format : UTF-8
Codec ID : S_TEXT/UTF8
Codec ID/Info : UTF-8 Plain Text
Duration : 58 min 55 s
Bit rate : 96 b/s
Count of elements : 1057
Stream size : 41.6 KiB (0%)
Language : English
Default : Yes
Forced : Yes


Screenshots:

BBC - What We Were Watching, Summer TV Classics (2020)

BBC - What We Were Watching, Summer TV Classics (2020)