Tags
Language
Tags

History Channel - History Undercover: Secret Aircraft of WWII (2004)

Posted By: Tutorial
SD / DVDRip
History Channel - History Undercover: Secret Aircraft of WWII (2004)

History Channel - History Undercover: Secret Aircraft of WWII (2004)
DVDRip | 720 x 544 | .MKV/AVC @ 2191 Kbps | 4x~45mn | 3.08 GB
Audio: English AC-3 256 Kbps, 2 channels | Subs: None
Genre: Documentary

This History Channel series uncovers the aircraft that no one knew about. Using specially commissioned computer graphics, previously unseen archive footage and interviews with aviation experts, this series brings back to life the Secret Aircraft of the Second World War.

Part 1: Secret Allied Aircraft of WWII
At the outset of World War II American and British military aircraft designs were woefully behind the more technologically superior German and Japanese planes. What closed the gap, however, was the genius and ingenuity of innovators on both sides of the Atlantic. For the Americans, it was a handful of visionaries and their teams. For the British, it was a creative and thoughtful spirit emanating from the top leadership on down. This hour presents the untold stories of the American and British cutting edge aircraft designs and solutions, some of which proved to be decades ahead of their time.


Part 2: Secret Luftwaffe Aircraft of WWII
See how the Stealth bomber was influenced by top-secret plans for a plane designed to drop a nuclear bomb on America. During World War II, German engineers and scientists helped create the most technologically advanced air force the world had ever seen. But even more incredible were the planes they didn't have time to build.
SECRET LUFTWAFFE AIRCRAFT OF WW2 makes a strong case that, had the war lasted much longer, Nazi aviation breakthroughs might have led to a different outcome. See captured, formerly top-secret plans for jet fighters, vertical take off and landing craft, swept-wing planes and much more. But most shocking of all was the Horton 18–a long-range bomber intended to drop a nuclear device on America. The decades-old plans for the Horton were invaluable in the development of the American Stealth aircraft! Filled with expert interviews, archival footage and computer creations of these groundbreaking planes in flight, this is a fascinating look at some of the most innovative weapons of all time.


Part 3: Secret Russian Aircaft of WWII
During WWII Russian aircraft designers worked under the paranoid rule of Stalin, many were imprisoned and forced to work in special prison camps. Despite this, their genius resulted in their independent discovery of jet and rocket technology. They were also incredibly innovative with flying tanks and submarine bomber prototypes, as well as the world first long range bomber.
In spite of the constant danger of being arrested for expressions of radical ideas and false accusations of treason, Soviet aircraft designers mastered technical hurdles astonishing even by today's standards. The innovative aircraft include a cutting edge swept-wing Delta aircraft design from '33; a rocket-powered fighter from '39; a long distance fixed wing aircraft with features incorporated two decades later in the U-2 spyplane; a flying tank prototype; a submarine-bomber combination designed to attack unsuspecting enemy ships in port; a canard wing, mid-40s craft that resembles a modern day Burt Rutan-designed plane.


Part 4: Secret Japanese Aircaft of WWII
Charting the incredible strides the Japanese aircraft designers made during the 1930's and their subsequent ground breaking developments during WWII. These culminated in the development of helicopters, rocket fighters and long range aircraft designed to strike at the US West coast armed with biological weapons.
In the 1930s, Japanese designers created a range of warplanes, culminating in the legendary Ki-43 "Oscar" and the A6M "Zero". As the war turned against Japan, designers created the rocket-powered "Shusui", the "Kikka" jet fighter, and the experimental R2Y"Keiun". We also disclose frantic preparations to assemble a secret airforce of jet and rocket planes to counter an anticipated U.S. invasion in1945, and chronicle post-war aviation and the birth of the Japanese rocket program in the 1950s and '60s.

General
Unique ID : 233526829370788799164998843415856635341 (0xAFAFA1A02C5F740A5BF2699CA1CF5DCD)
Complete name : HC.History.Undercover.Secret.Aircraft.of.WWII.1of4.Secret.Allied.Aircraft.mkv
Format : Matroska
Format version : Version 4 / Version 2
File size : 793 MiB
Duration : 45 min 17 s
Overall bit rate : 2 449 kb/s
Writing application : Lavf58.20.100
Writing library : Lavf58.20.100
ErrorDetectionType : Per level 1

Video
ID : 1
Format : AVC
Format/Info : Advanced Video Codec
Format profile : High@L3.1
Format settings, CABAC : Yes
Format settings, ReFrames : 4 frames
Codec ID : V_MPEG4/ISO/AVC
Duration : 45 min 17 s
Bit rate : 2 191 kb/s
Width : 720 pixels
Height : 544 pixels
Display aspect ratio : 4:3
Frame rate mode : Constant
Frame rate : 29.970 (30000/1001) FPS
Color space : YUV
Chroma subsampling : 4:2:0
Bit depth : 8 bits
Scan type : Progressive
Bits/(Pixel*Frame) : 0.187
Stream size : 695 MiB (88%)
Writing library : x264 core 146 r2538 121396c
Encoding settings : cabac=1 / ref=3 / deblock=1:0:0 / analyse=0x3:0x133 / me=umh / subme=10 / psy=1 / psy_rd=1.00:0.00 / mixed_ref=1 / me_range=16 / chroma_me=1 / trellis=2 / 8x8dct=1 / cqm=0 / deadzone=21,11 / fast_pskip=1 / chroma_qp_offset=-2 / threads=12 / lookahead_threads=1 / sliced_threads=0 / nr=0 / decimate=1 / interlaced=0 / bluray_compat=0 / constrained_intra=0 / bframes=3 / b_pyramid=2 / b_adapt=2 / b_bias=0 / direct=3 / weightb=1 / open_gop=0 / weightp=2 / keyint=250 / keyint_min=25 / scenecut=40 / intra_refresh=0 / rc_lookahead=40 / rc=2pass / mbtree=1 / bitrate=2191 / ratetol=1.0 / qcomp=0.60 / qpmin=10 / qpmax=51 / qpstep=4 / cplxblur=20.0 / qblur=0.5 / ip_ratio=1.40 / aq=2:1.00
Default : Yes
Forced : No
DURATION : 00:45:17.628000000

Audio
ID : 2
Format : AC-3
Format/Info : Audio Coding 3
Format settings, Endianness : Big
Codec ID : A_AC3
Duration : 45 min 17 s
Bit rate mode : Constant
Bit rate : 256 kb/s
Channel(s) : 2 channels
Channel positions : Front: L R
Sampling rate : 48.0 kHz
Frame rate : 31.250 FPS (1536 spf)
Bit depth : 16 bits
Compression mode : Lossy
Delay relative to video : 181 ms
Stream size : 82.9 MiB (10%)
Service kind : Complete Main
Default : Yes
Forced : No
DURATION : 00:45:17.630000000
Screenshots

History Channel - History Undercover: Secret Aircraft of WWII (2004)

History Channel - History Undercover: Secret Aircraft of WWII (2004)

History Channel - History Undercover: Secret Aircraft of WWII (2004)

Welcome to my blog - daily update!

History Channel - History Undercover: Secret Aircraft of WWII (2004)