Tags
Language
Tags

The Great Wall (2016)

Posted By:
1080p (FullHD) / BDRip IMDb
The Great Wall (2016)

The Great Wall (2016)
BDRip 1080p | MKV | 1920x808 | AVC@8459 kb/s | English AC3@640 kb/s
Subs: English HC (for non english parts) | 6 channels | 1 h 43 min | 6.54 GB
Genre: Action, Adventure, Fantasy

European mercenaries searching for black powder become embroiled in the defense of the Great Wall of China against a horde of monstrous creatures.



General
Complete name : The.Great.Wall.2016.1080p.BluRay.x264-GECKOS\The.Great.Wall.2016.1080p.BluRay.x264-GECKOS.mkv
Format : Matroska
Format version : Version 4 / Version 2
File size : 6.55 GiB
Duration : 1 h 43 min
Overall bit rate : 9 100 kb/s
Encoded date : UTC 2017-05-09 23:20:24
Writing application : mkvmerge v11.0.0 ('Alive') 64bit
Writing library : libebml v1.3.4 + libmatroska v1.4.5

Video
ID : 1
Format : AVC
Format/Info : Advanced Video Codec
Format profile : High@L4.1
Format settings, CABAC : Yes
Format settings, ReFrames : 5 frames
Codec ID : V_MPEG4/ISO/AVC
Duration : 1 h 43 min
Bit rate : 8 459 kb/s
Width : 1 920 pixels
Height : 808 pixels
Display aspect ratio : 2.40:1
Frame rate mode : Constant
Frame rate : 23.976 (24000/1001) FPS
Color space : YUV
Chroma subsampling : 4:2:0
Bit depth : 8 bits
Scan type : Progressive
Bits/(Pixel*Frame) : 0.227
Stream size : 6.09 GiB (93%)
Writing library : x264 core 148 r2744 b97ae06
Encoding settings : cabac=1 / ref=5 / deblock=1:-3:-3 / analyse=0x3:0x113 / me=umh / subme=8 / psy=1 / psy_rd=1.00:0.25 / mixed_ref=1 / me_range=24 / chroma_me=1 / trellis=1 / 8x8dct=1 / cqm=0 / deadzone=21,11 / fast_pskip=1 / chroma_qp_offset=-4 / threads=25 / lookahead_threads=4 / sliced_threads=0 / nr=0 / decimate=1 / interlaced=0 / bluray_compat=0 / constrained_intra=0 / bframes=3 / b_pyramid=2 / b_adapt=1 / b_bias=0 / direct=3 / weightb=1 / open_gop=0 / weightp=2 / keyint=240 / keyint_min=24 / scenecut=40 / intra_refresh=0 / rc_lookahead=50 / rc=2pass / mbtree=1 / bitrate=8459 / ratetol=1.0 / qcomp=0.60 / qpmin=0 / qpmax=69 / qpstep=4 / cplxblur=20.0 / qblur=0.5 / ip_ratio=1.40 / aq=1:0.75
Default : Yes
Forced : No

Audio
ID : 2
Format : AC-3
Format/Info : Audio Coding 3
Mode extension : CM (complete main)
Format settings, Endianness : Big
Codec ID : A_AC3
Duration : 1 h 43 min
Bit rate mode : Constant
Bit rate : 640 kb/s
Channel(s) : 6 channels
Channel positions : Front: L C R, Side: L R, LFE
Sampling rate : 48.0 kHz
Frame rate : 31.250 FPS (1536 spf)
Bit depth : 16 bits
Compression mode : Lossy
Stream size : 472 MiB (7%)
Language : English
Default : Yes
Forced : No

Menu
00:00:00.000 : en:00:00:00.000
00:05:58.358 : en:00:05:58.358
00:11:47.540 : en:00:11:47.540
00:16:53.679 : en:00:16:53.679
00:20:13.254 : en:00:20:13.254
00:25:11.009 : en:00:25:11.009
00:28:55.317 : en:00:28:55.317
00:33:57.744 : en:00:33:57.744
00:37:54.147 : en:00:37:54.147
00:42:42.935 : en:00:42:42.935
00:46:18.943 : en:00:46:18.943
00:50:27.691 : en:00:50:27.691
00:56:46.069 : en:00:56:46.069
01:01:58.048 : en:01:01:58.048
01:07:12.820 : en:01:07:12.820
01:12:08.533 : en:01:12:08.533
01:18:20.863 : en:01:18:20.863
01:23:25.083 : en:01:23:25.083
01:27:26.158 : en:01:27:26.158
01:31:14.386 : en:01:31:14.386


Screenshots

The Great Wall (2016)

The Great Wall (2016)

The Great Wall (2016)


Come Visit My Blog (•‿•)