Tags
Language
Tags

The Cabin (2018)

Posted By: Without
1080p (FullHD) / WEB-DL IMDb
The Cabin (2018)

The Cabin (2018)
HDRip | MKV | 720x304 | AVC@1700 kb/s | English AC3@384 kb/s | 6 channels | 1 h 26 min | 1.25 GB
WEB-DL 1080p | MKV | 1920x804 | AVC@4563 kb/s | English AC3@384 kb/s | 6 channels | 1 h 26 min | 2.99 GB
Genre: Horror | Thriller

When a couple visits a remote cabin and cross paths with a compulsive liar, their vacation takes a dramatic turn for the worse.



General
The.Cabin.2018.HDRip.XviD.AC3-EVO.avi
Format : Matroska
Format version : Version 2
File size : 1.26 GiB
Duration : 1 h 26 min
Overall bit rate : 2 079 kb/s
Encoded date : UTC 2018-12-04T05:25:51Z
Writing application : HandBrake 0.10.5 2016021100
Writing library : Lavf55.12.0 / Lavf55.12.0

Video
ID : 1
Format : AVC
Format/Info : Advanced Video Codec
Format profile : High@L4.1
Format settings, CABAC : Yes
Format settings, ReFrames : 4 frames
Codec ID : V_MPEG4/ISO/AVC
Duration : 1 h 26 min
Bit rate : 1 700 kb/s
Width : 720 pixels
Height : 304 pixels
Display aspect ratio : 2.35:1
Frame rate mode : Constant
Frame rate : 23.976 (24000/1001) FPS
Color space : YUV
Chroma subsampling : 4:2:0
Bit depth : 8 bits
Scan type : Progressive
Bits/(Pixel*Frame) : 0.324
Stream size : 1.00 GiB (80%)
Writing library : x264 core 142 r2479 dd79a61
Encoding settings : cabac=1 / ref=1 / deblock=1:0:0 / analyse=0x3:0x113 / me=hex / subme=2 / psy=1 / psy_rd=1.00:0.00 / mixed_ref=0 / me_range=16 / chroma_me=1 / trellis=0 / 8x8dct=1 / cqm=0 / deadzone=21,11 / fast_pskip=1 / chroma_qp_offset=0 / threads=18 / lookahead_threads=2 / sliced_threads=0 / nr=0 / decimate=1 / interlaced=0 / bluray_compat=0 / constrained_intra=0 / bframes=3 / b_pyramid=2 / b_adapt=1 / b_bias=0 / direct=1 / weightb=1 / open_gop=0 / weightp=1 / keyint=240 / keyint_min=24 / scenecut=40 / intra_refresh=0 / rc_lookahead=10 / rc=abr / mbtree=1 / bitrate=1700 / ratetol=1.0 / qcomp=0.60 / qpmin=0 / qpmax=69 / qpstep=4 / vbv_maxrate=62500 / vbv_bufsize=78125 / nal_hrd=none / filler=0 / ip_ratio=1.40 / aq=1:1.00
Default : Yes
Forced : No
Color range : Limited
Color primaries : BT.709
Transfer characteristics : BT.709
Matrix coefficients : BT.709

Audio
ID : 2
Format : AC-3
Format/Info : Audio Coding 3
Mode extension : CM (complete main)
Format settings, Endianness : Big
Codec ID : A_AC3
Duration : 1 h 26 min
Bit rate mode : Constant
Bit rate : 384 kb/s
Channel(s) : 6 channels
Channel positions : Front: L C R, Side: L R, LFE
Sampling rate : 48.0 kHz
Frame rate : 31.250 FPS (1536 spf)
Bit depth : 16 bits
Compression mode : Lossy
Delay relative to video : -5 ms
Stream size : 238 MiB (18%)
Title : Surround
Language : English
Default : Yes
Forced : No

Menu
00:00:00.000 : :1
00:07:55.558 : :2
00:16:18.018 : :3
00:26:48.732 : :4
00:37:51.435 : :5
00:46:02.343 : :6
00:55:42.047 : :7
01:09:04.974 : :8
01:25:10.063 : :9


General
The.Cabin.2018.1080p.WEB-DL.H264.AC3-EVO.mkv
Format : Matroska
Format version : Version 4 / Version 2
File size : 2.99 GiB
Duration : 1 h 26 min
Overall bit rate : 4 949 kb/s
Encoded date : UTC 2018-12-04 05:12:35
Writing application : mkvmerge v25.0.0 ('Prog Noir') 64-bit
Writing library : libebml v1.3.6 + libmatroska v1.4.9

Video
ID : 2
Format : AVC
Format/Info : Advanced Video Codec
Format profile : High@L4
Format settings, CABAC : Yes
Format settings, ReFrames : 5 frames
Codec ID : V_MPEG4/ISO/AVC
Duration : 1 h 26 min
Bit rate : 4 563 kb/s
Width : 1 920 pixels
Height : 804 pixels
Display aspect ratio : 2.40:1
Frame rate mode : Constant
Frame rate : 23.976 FPS
Color space : YUV
Chroma subsampling : 4:2:0
Bit depth : 8 bits
Scan type : Progressive
Bits/(Pixel*Frame) : 0.123
Stream size : 2.76 GiB (92%)
Language : English
Default : Yes
Forced : No
Color range : Limited
Color primaries : BT.709
Transfer characteristics : BT.709
Matrix coefficients : BT.709

Audio
ID : 1
Format : AC-3
Format/Info : Audio Coding 3
Mode extension : CM (complete main)
Format settings, Endianness : Big
Codec ID : A_AC3
Duration : 1 h 26 min
Bit rate mode : Constant
Bit rate : 384 kb/s
Channel(s) : 6 channels
Channel positions : Front: L C R, Side: L R, LFE
Sampling rate : 48.0 kHz
Frame rate : 31.250 FPS (1536 spf)
Bit depth : 16 bits
Compression mode : Lossy
Delay relative to video : -42 ms
Stream size : 238 MiB (8%)
Language : English
Default : Yes
Forced : No

Menu
00:00:00.000 : en:1
00:07:55.475 : en:2
00:16:17.894 : en:3
00:26:48.608 : en:4
00:37:51.270 : en:5
00:46:02.177 : en:6
00:55:41.923 : en:7
01:09:04.849 : en:8
01:25:09.939 : en:9



HDRip Screenshots

The Cabin (2018)

The Cabin (2018)

The Cabin (2018)


WEB-DL 1080p Screenshots

The Cabin (2018)

The Cabin (2018)

The Cabin (2018)


Come Visit My Blog (•‿•)