The Passion of Anna / En passion (1969) [Criterion Collection]

Posted By: RSU75
1080p (FullHD) / BDRip IMDb
The Passion of Anna / En passion (1969) [Criterion Collection]

Ingmar Bergman’s Cinema. The Passion of Anna / En passion (1969) [Criterion Collection]
BDRip 1080p | MKV | AVC 1792x1080, ~ 4.0 Mbps | 1hr 41mn | 3.14 GB | Swedish: AC3, 1 ch, 448 kbps
BDRip 720p | MKV | AVC 1192x720, ~ 2.9 Mbps | 1hr 41mn | 2.23 GB | Swedish: AC3, 1 ch, 256 kbps
Subtitles: English
Genre: Drama
IMDB Rating: 7.8/10 (7.096 votes)


Director: Ingmar Bergman
Writers: Ingmar Bergman
Stars: Liv Ullmann, Bibi Andersson, Max von Sydow

Extras:
- None

This drama shot on Ingmar Bergman’s beloved Fårö island describes a mood of fear, isolation, and the longing for connection. Not long after the dissolution of his marriage and a fleeting liaison with a neighbor (Bibi Andersson), the reclusive Andreas (Max von Sydow) begins an ill-fated affair with the mysterious, beguiling Anna (Liv Ullmann), who has recently lost her own husband and son. Bergman’s first color film since All These Women, The Passion of Anna is a sequel of sorts to Shame. It incorporates documentary-style interviews with the actors, blurring the boundaries between fiction and nonfiction, lies and truth, dreams and reality, identity and anonymity.


The Passion of Anna / En passion (1969) [Criterion Collection]


Ingmar Bergman’s Cinema: In honor of Ingmar Bergman’s one hundredth birthday, the Criterion Collection is proud to present the most comprehensive collection of his films ever released on home video. One of the most revelatory voices to emerge from the postwar explosion of international art-house cinema, Bergman was a master storyteller who startled the world with his stark intensity and naked pursuit of the most profound metaphysical and spiritual questions. The struggles of faith and morality, the nature of dreams, and the agonies and ecstasies of human relationships—Bergman explored these subjects in films ranging from comedies whose lightness and complexity belie their brooding hearts to groundbreaking formal experiments and excruciatingly intimate explorations of family life.




General
Unique ID : 241511152609805222470668946875624836411 (0xB5B15B277FF66EABB29AE54B2C91CD3B)
Complete name : F:\ThePassionOfAnna.69.Cr.1p\ThePassionOfAnna.69.Cr.1p.mkv
Format : Matroska
Format version : Version 4 / Version 2
File size : 3.14 GiB
Duration : 1 h 41 min
Overall bit rate : 4 445 kb/s
Movie name : Release RSU75
Encoded date : UTC 2019-01-12 03:13:29
Writing application : mkvmerge v6.6.0 ('The Edge Of The In Between') built on Dec 1 2013 17:55:00
Writing library : libebml v1.3.0 + libmatroska v1.4.1

Video
ID : 1
Format : AVC
Format/Info : Advanced Video Codec
Format profile : High@L4.1
Format settings : CABAC / 4 Ref Frames
Format settings, CABAC : Yes
Format settings, ReFrames : 4 frames
Codec ID : V_MPEG4/ISO/AVC
Duration : 1 h 41 min
Bit rate : 4 000 kb/s
Width : 1 792 pixels
Height : 1 080 pixels
Display aspect ratio : 5:3
Frame rate mode : Constant
Frame rate : 23.976 (23976/1000) FPS
Color space : YUV
Chroma subsampling : 4:2:0
Bit depth : 8 bits
Scan type : Progressive
Bits/(Pixel*Frame) : 0.086
Stream size : 2.76 GiB (88%)
Writing library : x264 core 148 r2643 5c65704
Encoding settings : cabac=1 / ref=4 / deblock=1:0:0 / analyse=0x3:0x113 / me=umh / subme=8 / psy=1 / psy_rd=1.00:0.00 / mixed_ref=1 / me_range=24 / chroma_me=1 / trellis=1 / 8x8dct=1 / cqm=0 / deadzone=21,11 / fast_pskip=1 / chroma_qp_offset=-2 / threads=3 / lookahead_threads=1 / sliced_threads=0 / nr=0 / decimate=1 / interlaced=0 / bluray_compat=0 / constrained_intra=0 / bframes=3 / b_pyramid=0 / b_adapt=2 / b_bias=0 / direct=3 / weightb=1 / open_gop=0 / weightp=2 / keyint=250 / keyint_min=25 / scenecut=40 / intra_refresh=0 / rc_lookahead=40 / rc=abr / mbtree=1 / bitrate=4000 / ratetol=1.0 / qcomp=0.60 / qpmin=10 / qpmax=51 / qpstep=4 / ip_ratio=1.41 / aq=1:1.00
Language : English
Default : Yes
Forced : No

Audio
ID : 2
Format : AC-3
Format/Info : Audio Coding 3
Commercial name : Dolby Digital
Codec ID : A_AC3
Duration : 1 h 41 min
Bit rate mode : Constant
Bit rate : 448 kb/s
Channel(s) : 1 channel
Channel layout : C
Sampling rate : 48.0 kHz
Frame rate : 31.250 FPS (1536 SPF)
Bit depth : 16 bits
Compression mode : Lossy
Stream size : 324 MiB (10%)
Language : Swedish
Service kind : Complete Main
Default : Yes
Forced : No

Text
ID : 3
Format : PGS
Muxing mode : zlib
Codec ID : S_HDMV/PGS
Codec ID/Info : Picture based subtitle format used on BDs/HD-DVDs
Language : English
Default : Yes
Forced : No

Menu
00:00:00.000 : en:Chapter 01
00:05:42.925 : en:Chapter 02
00:09:56.137 : en:Chapter 03
00:14:22.611 : en:Chapter 04
00:17:49.943 : en:Chapter 05
00:24:00.230 : en:Chapter 06
00:28:11.356 : en:Chapter 07
00:33:50.611 : en:Chapter 08
00:40:10.950 : en:Chapter 09
00:47:38.480 : en:Chapter 10
00:50:18.598 : en:Chapter 11
00:51:44.893 : en:Chapter 12
00:57:43.877 : en:Chapter 13
01:03:58.918 : en:Chapter 14
01:08:57.466 : en:Chapter 15
01:14:34.928 : en:Chapter 16
01:21:17.372 : en:Chapter 17
01:24:45.955 : en:Chapter 18
01:29:06.257 : en:Chapter 19
01:35:03.698 : en:Chapter 20






General
Unique ID : 230139809848257062346923887025915126086 (0xAD2350AB96AE9680B1170778712B6146)
Complete name : F:\ThePassionOfAnna.69.Cr.7p\ThePassionOfAnna.69.Cr.7p.mkv
Format : Matroska
Format version : Version 4 / Version 2
File size : 2.23 GiB
Duration : 1 h 41 min
Overall bit rate : 3 162 kb/s
Movie name : Release RSU75
Encoded date : UTC 2019-01-12 03:01:37
Writing application : mkvmerge v6.6.0 ('The Edge Of The In Between') built on Dec 1 2013 17:55:00
Writing library : libebml v1.3.0 + libmatroska v1.4.1

Video
ID : 1
Format : AVC
Format/Info : Advanced Video Codec
Format profile : High@L4.1
Format settings : CABAC / 4 Ref Frames
Format settings, CABAC : Yes
Format settings, ReFrames : 4 frames
Codec ID : V_MPEG4/ISO/AVC
Duration : 1 h 41 min
Bit rate : 2 900 kb/s
Width : 1 192 pixels
Height : 720 pixels
Display aspect ratio : 5:3
Frame rate mode : Constant
Frame rate : 23.976 (23976/1000) FPS
Color space : YUV
Chroma subsampling : 4:2:0
Bit depth : 8 bits
Scan type : Progressive
Bits/(Pixel*Frame) : 0.141
Stream size : 2.01 GiB (90%)
Writing library : x264 core 148 r2643 5c65704
Encoding settings : cabac=1 / ref=4 / deblock=1:0:0 / analyse=0x3:0x113 / me=umh / subme=8 / psy=1 / psy_rd=1.00:0.00 / mixed_ref=1 / me_range=24 / chroma_me=1 / trellis=1 / 8x8dct=1 / cqm=0 / deadzone=21,11 / fast_pskip=1 / chroma_qp_offset=-2 / threads=3 / lookahead_threads=1 / sliced_threads=0 / nr=0 / decimate=1 / interlaced=0 / bluray_compat=0 / constrained_intra=0 / bframes=3 / b_pyramid=0 / b_adapt=2 / b_bias=0 / direct=3 / weightb=1 / open_gop=0 / weightp=2 / keyint=250 / keyint_min=25 / scenecut=40 / intra_refresh=0 / rc_lookahead=40 / rc=abr / mbtree=1 / bitrate=2900 / ratetol=1.0 / qcomp=0.60 / qpmin=10 / qpmax=51 / qpstep=4 / ip_ratio=1.41 / aq=1:1.00
Language : English
Default : Yes
Forced : No

Audio
ID : 2
Format : AC-3
Format/Info : Audio Coding 3
Commercial name : Dolby Digital
Codec ID : A_AC3
Duration : 1 h 41 min
Bit rate mode : Constant
Bit rate : 256 kb/s
Channel(s) : 1 channel
Channel layout : C
Sampling rate : 48.0 kHz
Frame rate : 31.250 FPS (1536 SPF)
Bit depth : 16 bits
Compression mode : Lossy
Stream size : 185 MiB (8%)
Language : Swedish
Service kind : Complete Main
Default : Yes
Forced : No

Text
ID : 3
Format : PGS
Muxing mode : zlib
Codec ID : S_HDMV/PGS
Codec ID/Info : Picture based subtitle format used on BDs/HD-DVDs
Language : English
Default : Yes
Forced : No

Menu
00:00:00.000 : en:Chapter 01
00:05:42.925 : en:Chapter 02
00:09:56.137 : en:Chapter 03
00:14:22.611 : en:Chapter 04
00:17:49.943 : en:Chapter 05
00:24:00.230 : en:Chapter 06
00:28:11.356 : en:Chapter 07
00:33:50.611 : en:Chapter 08
00:40:10.950 : en:Chapter 09
00:47:38.480 : en:Chapter 10
00:50:18.598 : en:Chapter 11
00:51:44.893 : en:Chapter 12
00:57:43.877 : en:Chapter 13
01:03:58.918 : en:Chapter 14
01:08:57.466 : en:Chapter 15
01:14:34.928 : en:Chapter 16
01:21:17.372 : en:Chapter 17
01:24:45.955 : en:Chapter 18
01:29:06.257 : en:Chapter 19
01:35:03.698 : en:Chapter 20




Screenshots 1080p (click to enlarge to original size):

The Passion of Anna / En passion (1969) [Criterion Collection]

The Passion of Anna / En passion (1969) [Criterion Collection]

The Passion of Anna / En passion (1969) [Criterion Collection]


The Passion of Anna / En passion (1969) [Criterion Collection]



Screenshots 720p (click to enlarge to original size):

The Passion of Anna / En passion (1969) [Criterion Collection]




–––––––––––––––––––––––––––––––––––––––-
>>> "Criterion Collection" <<<OR >>> "BDRip" <<<OR >>> "Ingmar Bergman" <<<
–––––––––––––––––––––––––––––––––––––––-
>>> Visit Blog RSU75 Here <<<
–––––––––––––––––––––––––––––––––––––––-