Tags
Language
Tags

National Geographic - The Devil's Bible (2009)

Posted By: Tutorial
SD / DVDRip
National Geographic - The Devil's Bible (2009)

National Geographic - The Devil's Bible (2009)
DVDRip | 720 x 416 | .AVI/DivX @ 2033 Kbps | 44 min 57 s | 697 MB
Audio: English MP3 128 Kbps, 2 channels | Subs: None
Genre: Documentary

At 165 pounds, and allegedly made from the skins of 160 donkeys, the Codex Gigas is the world's largest and most mysterious medieval manuscript. Filled with satanic images and demonic spells, according to legend, the cursed text sprang from a doomed monk's pact with the Devil. Now, Nat Geo follows a team of scientists as they embark on an unprecedented quest to unravel the secrets behind the book's darkened pages. Using ultra-violet fluorescence imaging, handwriting analysis and a re-creation of the text, forensic document experts attempt to uncover the cryptic truth behind this ancient Devil's Bible.

General
Complete name : National.Geographic.The.Devils.Bible.avi
Format : AVI
Format/Info : Audio Video Interleave
File size : 697 MiB
Duration : 44 min 57 s
Overall bit rate : 2 169 kb/s
Writing application : VirtualDubMod 1.5.4.1 (build 2178/release)
Writing library : VirtualDubMod build 2178/release

Video
ID : 0
Format : MPEG-4 Visual
Format profile : Advanced Simple@L5
Format settings, BVOP : 1
Format settings, QPel : No
Format settings, GMC : No warppoints
Format settings, Matrix : Custom
Codec ID : XVID
Codec ID/Hint : XviD
Duration : 44 min 57 s
Bit rate : 2 033 kb/s
Width : 720 pixels
Height : 416 pixels
Display aspect ratio : 1.731
Frame rate : 25.000 FPS
Color space : YUV
Chroma subsampling : 4:2:0
Bit depth : 8 bits
Scan type : Progressive
Compression mode : Lossy
Bits/(Pixel*Frame) : 0.272
Stream size : 654 MiB (94%)
Writing library : XviD 1.2.1 (UTC 2008-12-04)

Audio
ID : 1
Format : MPEG Audio
Format version : Version 1
Format profile : Layer 3
Mode : Joint stereo
Mode extension : MS Stereo
Codec ID : 55
Codec ID/Hint : MP3
Duration : 44 min 57 s
Bit rate mode : Constant
Bit rate : 128 kb/s
Channel(s) : 2 channels
Sampling rate : 48.0 kHz
Compression mode : Lossy
Stream size : 41.2 MiB (6%)
Alignment : Aligned on interleaves
Interleave, duration : 80 ms (2.00 video frames)
Interleave, preload duration : 504 ms
Writing library : LAME3.98r
Encoding settings : -m j -V 4 -q 2 -lowpass 17 -b 128
Screenshots

National Geographic - The Devil's Bible (2009)

Welcome to my blog - daily update!

National Geographic - The Devil's Bible (2009)