Tags
Language
Tags

Die Gruft mit dem Rätselschloß / The Curse of the Hidden Vault (1964)

Posted By:
1080p (FullHD) / BDRip IMDb
Die Gruft mit dem Rätselschloß / The Curse of the Hidden Vault (1964)

Die Gruft mit dem Rätselschloß / The Curse of the Hidden Vault (1964)
BDRip | MKV | 1 h 30 min | 483 MB | 720x306 | AVC@680 kb/s | Deutsch AAC@63.5 kb/s, 1 ch
BDRip 720p | MKV | 1 h 30 min | 3.54 GB | 1280x544 | AVC@4303 kb/s | English, Deutsch AC3@640 kb/s
BDRip 1080p | MKV | 1 h 30 min | 9.22 GB | 1920x816 | AVC@12.7 Mb/s | English, Deutsch DTS-HD MA@931 kb/s
Subs: English, Deutsch
Genre: Crime | Drama

Mobsters conspire to loot another criminal's treasure secured in an enormous booby-trapped vault.



General
The.Curse.of.the.Hidden.Vault.1964.BDRip.x264-UNVEiL.mkv
Format : Matroska
Format version : Version 4 / Version 2
File size : 483 MB
Duration : 1 h 30 min
Overall bit rate : 746 kb/s
Encoded date : UTC 2020-08-02 00:23:36
Writing application : mkvmerge v31.0.0 ('Dolores In A Shoestand') 64-bit
Writing library : libebml v1.3.6 + libmatroska v1.4.9

Video
ID : 1
Format : AVC
Format/Info : Advanced Video Codec
Format profile : High@L3.1
Format settings, CABAC : Yes
Format settings, ReFrames : 8 frames
Codec ID : V_MPEG4/ISO/AVC
Duration : 1 h 30 min
Bit rate : 680 kb/s
Width : 720 pixels
Height : 306 pixels
Display aspect ratio : 2.35:1
Frame rate mode : Constant
Frame rate : 24.000 FPS
Color space : YUV
Chroma subsampling : 4:2:0
Bit depth : 8 bits
Scan type : Progressive
Bits/(Pixel*Frame) : 0.129
Stream size : 440 MB (91%)
Writing library : x264 core 161 r3018 db0d417
Encoding settings : cabac=1 / ref=8 / deblock=1:-3:-3 / analyse=0x3:0x133 / me=umh / subme=9 / psy=1 / psy_rd=1.00:0.00 / mixed_ref=1 / me_range=16 / chroma_me=1 / trellis=2 / 8x8dct=1 / cqm=0 / deadzone=21,11 / fast_pskip=0 / chroma_qp_offset=-2 / threads=10 / lookahead_threads=1 / sliced_threads=0 / nr=0 / decimate=1 / interlaced=0 / bluray_compat=0 / constrained_intra=0 / bframes=3 / b_pyramid=2 / b_adapt=2 / b_bias=0 / direct=3 / weightb=1 / open_gop=0 / weightp=2 / keyint=250 / keyint_min=24 / scenecut=40 / intra_refresh=0 / rc_lookahead=60 / rc=crf / mbtree=1 / crf=19.0 / qcomp=0.60 / qpmin=0 / qpmax=69 / qpstep=4 / ip_ratio=1.40 / aq=1:1.00
Language : English
Default : Yes
Forced : No
Color range : Limited
Matrix coefficients : BT.709

Audio
ID : 2
Format : AAC
Format/Info : Advanced Audio Codec
Format profile : LC
Codec ID : A_AAC
Duration : 1 h 30 min
Bit rate : 63.5 kb/s
Channel(s) : 1 channel
Channel positions : Front: C
Sampling rate : 48.0 kHz
Frame rate : 46.875 FPS (1024 spf)
Compression mode : Lossy
Delay relative to video : 9 ms
Stream size : 41.1 MB (9%)
Language : German
Default : Yes
Forced : No

Text
ID : 3
Format : UTF-8
Codec ID : S_TEXT/UTF8
Codec ID/Info : UTF-8 Plain Text
Duration : 1 h 28 min
Bit rate : 45 b/s
Count of elements : 644
Stream size : 29.5 KiB (0%)
Language : English
Default : Yes
Forced : No

Menu
00:00:00.000 : :Kapitel 01
00:10:18.042 : :Kapitel 02
00:21:36.458 : :Kapitel 03
00:32:59.000 : :Kapitel 04
00:42:07.125 : :Kapitel 05
00:52:12.333 : :Kapitel 06
01:03:37.708 : :Kapitel 07
01:15:19.458 : :Kapitel 08


General
The.Curse.of.the.Hidden.Vault.1964.720p.BluRay.x264-UNVEiL.mkv
Format : Matroska
Format version : Version 4 / Version 2
File size : 3.54 GB
Duration : 1 h 30 min
Overall bit rate : 5603 kb/s
Encoded date : UTC 2020-08-02 00:18:41
Writing application : mkvmerge v31.0.0 ('Dolores In A Shoestand') 64-bit
Writing library : libebml v1.3.6 + libmatroska v1.4.9

Video
ID : 1
Format : AVC
Format/Info : Advanced Video Codec
Format profile : High@L4.1
Format settings, CABAC : Yes
Format settings, ReFrames : 8 frames
Codec ID : V_MPEG4/ISO/AVC
Duration : 1 h 30 min
Bit rate : 4303 kb/s
Width : 1280 pixels
Height : 544 pixels
Display aspect ratio : 2.35:1
Frame rate mode : Constant
Frame rate : 24.000 FPS
Color space : YUV
Chroma subsampling : 4:2:0
Bit depth : 8 bits
Scan type : Progressive
Bits/(Pixel*Frame) : 0.258
Stream size : 2.72 GB (77%)
Writing library : x264 core 161 r3018 db0d417
Encoding settings : cabac=1 / ref=8 / deblock=1:-3:-3 / analyse=0x3:0x133 / me=umh / subme=9 / psy=1 / psy_rd=1.00:0.00 / mixed_ref=1 / me_range=16 / chroma_me=1 / trellis=2 / 8x8dct=1 / cqm=0 / deadzone=21,11 / fast_pskip=0 / chroma_qp_offset=-2 / threads=17 / lookahead_threads=1 / sliced_threads=0 / nr=0 / decimate=1 / interlaced=0 / bluray_compat=0 / constrained_intra=0 / bframes=3 / b_pyramid=2 / b_adapt=2 / b_bias=0 / direct=3 / weightb=1 / open_gop=0 / weightp=2 / keyint=250 / keyint_min=24 / scenecut=40 / intra_refresh=0 / rc_lookahead=60 / rc=crf / mbtree=1 / crf=17.0 / qcomp=0.60 / qpmin=0 / qpmax=69 / qpstep=4 / ip_ratio=1.40 / aq=1:1.00
Language : English
Default : Yes
Forced : No

Audio #1
ID : 2
Format : AC-3
Format/Info : Audio Coding 3
Mode extension : CM (complete main)
Format settings, Endianness : Big
Codec ID : A_AC3
Duration : 1 h 30 min
Bit rate mode : Constant
Bit rate : 640 kb/s
Channel(s) : 2 channels
Channel positions : Front: L R
Sampling rate : 48.0 kHz
Frame rate : 31.250 FPS (1536 spf)
Bit depth : 16 bits
Compression mode : Lossy
Stream size : 414 MB (11%)
Language : German
Default : Yes
Forced : No

Audio #2
ID : 3
Format : AC-3
Format/Info : Audio Coding 3
Mode extension : CM (complete main)
Format settings, Endianness : Big
Codec ID : A_AC3
Duration : 1 h 30 min
Bit rate mode : Constant
Bit rate : 640 kb/s
Channel(s) : 2 channels
Channel positions : Front: L R
Sampling rate : 48.0 kHz
Frame rate : 31.250 FPS (1536 spf)
Bit depth : 16 bits
Compression mode : Lossy
Stream size : 414 MB (11%)
Language : English
Default : No
Forced : No

Text #1
ID : 4
Format : UTF-8
Codec ID : S_TEXT/UTF8
Codec ID/Info : UTF-8 Plain Text
Duration : 1 h 28 min
Bit rate : 45 b/s
Count of elements : 644
Stream size : 29.5 KiB (0%)
Language : English
Default : Yes
Forced : No

Text #2
ID : 5
Format : PGS
Muxing mode : zlib
Codec ID : S_HDMV/PGS
Codec ID/Info : Picture based subtitle format used on BDs/HD-DVDs
Duration : 1 h 28 min
Bit rate : 24.5 kb/s
Count of elements : 1288
Stream size : 15.5 MB (0%)
Language : English
Default : No
Forced : No

Text #3
ID : 6
Format : PGS
Muxing mode : zlib
Codec ID : S_HDMV/PGS
Codec ID/Info : Picture based subtitle format used on BDs/HD-DVDs
Duration : 1 h 28 min
Bit rate : 27.9 kb/s
Count of elements : 1368
Stream size : 17.7 MB (0%)
Language : German
Default : No
Forced : No

Menu
00:00:00.000 : :Kapitel 01
00:10:18.042 : :Kapitel 02
00:21:36.458 : :Kapitel 03
00:32:59.000 : :Kapitel 04
00:42:07.125 : :Kapitel 05
00:52:12.333 : :Kapitel 06
01:03:37.708 : :Kapitel 07
01:15:19.458 : :Kapitel 08


General
The.Curse.of.the.Hidden.Vault.1964.1080p.BluRay.x264-UNVEiL.mkv
Format : Matroska
Format version : Version 4 / Version 2
File size : 9.22 GB
Duration : 1 h 30 min
Overall bit rate : 14.6 Mb/s
Encoded date : UTC 2020-08-02 00:13:37
Writing application : mkvmerge v31.0.0 ('Dolores In A Shoestand') 64-bit
Writing library : libebml v1.3.6 + libmatroska v1.4.9

Video
ID : 1
Format : AVC
Format/Info : Advanced Video Codec
Format profile : High@L4.1
Format settings, CABAC : Yes
Format settings, ReFrames : 5 frames
Codec ID : V_MPEG4/ISO/AVC
Duration : 1 h 30 min
Bit rate : 12.7 Mb/s
Width : 1920 pixels
Height : 816 pixels
Display aspect ratio : 2.35:1
Frame rate mode : Constant
Frame rate : 24.000 FPS
Color space : YUV
Chroma subsampling : 4:2:0
Bit depth : 8 bits
Scan type : Progressive
Bits/(Pixel*Frame) : 0.338
Stream size : 8.04 GB (87%)
Writing library : x264 core 161 r3018 db0d417
Encoding settings : cabac=1 / ref=5 / deblock=1:-3:-3 / analyse=0x3:0x133 / me=umh / subme=9 / psy=1 / psy_rd=1.00:0.00 / mixed_ref=1 / me_range=16 / chroma_me=1 / trellis=2 / 8x8dct=1 / cqm=0 / deadzone=21,11 / fast_pskip=0 / chroma_qp_offset=-2 / threads=25 / lookahead_threads=2 / sliced_threads=0 / nr=0 / decimate=1 / interlaced=0 / bluray_compat=0 / constrained_intra=0 / bframes=3 / b_pyramid=2 / b_adapt=2 / b_bias=0 / direct=3 / weightb=1 / open_gop=0 / weightp=2 / keyint=250 / keyint_min=24 / scenecut=40 / intra_refresh=0 / rc_lookahead=60 / rc=crf / mbtree=1 / crf=17.0 / qcomp=0.60 / qpmin=0 / qpmax=69 / qpstep=4 / ip_ratio=1.40 / aq=1:1.00
Language : English
Default : Yes
Forced : No

Audio #1
ID : 2
Format : DTS
Format/Info : Digital Theater Systems
Format profile : MA / Core
Mode : 16
Format settings, Endianness : Big
Codec ID : A_DTS
Duration : 1 h 30 min
Bit rate mode : Variable / Constant
Bit rate : 931 kb/s / 768 kb/s
Channel(s) : 2 channels
Channel positions : Front: L R
Sampling rate : 48.0 kHz
Frame rate : 93.750 FPS (512 spf)
Bit depth : 24 bits
Compression mode : Lossless / Lossy
Stream size : 602 MB (6%)
Language : German
Default : Yes
Forced : No

Audio #2
ID : 3
Format : DTS
Format/Info : Digital Theater Systems
Format profile : MA / Core
Mode : 16
Format settings, Endianness : Big
Codec ID : A_DTS
Duration : 1 h 30 min
Bit rate mode : Variable / Constant
Bit rate : 916 kb/s / 768 kb/s
Channel(s) : 2 channels
Channel positions : Front: L R
Sampling rate : 48.0 kHz
Frame rate : 93.750 FPS (512 spf)
Bit depth : 24 bits
Compression mode : Lossless / Lossy
Stream size : 593 MB (6%)
Language : English
Default : No
Forced : No

Text #1
ID : 4
Format : UTF-8
Codec ID : S_TEXT/UTF8
Codec ID/Info : UTF-8 Plain Text
Duration : 1 h 28 min
Bit rate : 45 b/s
Count of elements : 644
Stream size : 29.5 KiB (0%)
Language : English
Default : Yes
Forced : No

Text #2
ID : 5
Format : PGS
Muxing mode : zlib
Codec ID : S_HDMV/PGS
Codec ID/Info : Picture based subtitle format used on BDs/HD-DVDs
Duration : 1 h 28 min
Bit rate : 24.5 kb/s
Count of elements : 1288
Stream size : 15.5 MB (0%)
Language : English
Default : No
Forced : No

Text #3
ID : 6
Format : PGS
Muxing mode : zlib
Codec ID : S_HDMV/PGS
Codec ID/Info : Picture based subtitle format used on BDs/HD-DVDs
Duration : 1 h 28 min
Bit rate : 27.9 kb/s
Count of elements : 1368
Stream size : 17.7 MB (0%)
Language : German
Default : No
Forced : No

Menu
00:00:00.000 : :Kapitel 01
00:10:18.042 : :Kapitel 02
00:21:36.458 : :Kapitel 03
00:32:59.000 : :Kapitel 04
00:42:07.125 : :Kapitel 05
00:52:12.333 : :Kapitel 06
01:03:37.708 : :Kapitel 07
01:15:19.458 : :Kapitel 08



BDRip Screenshots

Die Gruft mit dem Rätselschloß / The Curse of the Hidden Vault (1964)

Die Gruft mit dem Rätselschloß / The Curse of the Hidden Vault (1964)

Die Gruft mit dem Rätselschloß / The Curse of the Hidden Vault (1964)


BDRip 720p Screenshots

Die Gruft mit dem Rätselschloß / The Curse of the Hidden Vault (1964)

Die Gruft mit dem Rätselschloß / The Curse of the Hidden Vault (1964)

Die Gruft mit dem Rätselschloß / The Curse of the Hidden Vault (1964)


BDRip 1080p Screenshots

Die Gruft mit dem Rätselschloß / The Curse of the Hidden Vault (1964)

Die Gruft mit dem Rätselschloß / The Curse of the Hidden Vault (1964)

Die Gruft mit dem Rätselschloß / The Curse of the Hidden Vault (1964)


Come Visit My Blog (•‿•)