Tags
Language
Tags

The Searchers (1956)

Posted By: Tavaz
1080p (FullHD) / BDRip IMDb
The Searchers (1956)

The Searchers (1956)
MKV | 1920x1080 | English | H264 @ 6245 kbps | AC-3 @ 96 kbps | 1 h 58 min | 5.37 GiB
Subtitles: English
Genre: Western

As a Civil War veteran spends years searching for a young niece captured by Indians, his motivation becomes increasingly questionable.

THE SEARCHERS (1956) 1080p.mkv (5.4 GB)
THE SEARCHERS (1956) 1080p.nl.srt (79.0 KB)



General
Unique ID : 119080456112309261543209037992475158863 (0x59960FC67239E74959D8FB093146E94F)
Complete name : ./THE SEARCHERS (1956) 1080p.mkv
Format : Matroska
Format version : Version 4 / Version 2
File size : 5.37 GiB
Duration : 1 h 58 min
Overall bit rate mode : Variable
Overall bit rate : 6 470 kb/s
Writing application : Lavf56.30.100
Writing library : Lavf56.30.100
LABEL : Chapter 43
Language : eng
TCHAPTER : 157860384

Video
ID : 1
Format : AVC
Format/Info : Advanced Video Codec
Format profile : High@L4.1
Format settings : CABAC / 1 Ref Frames
Format settings, CABAC : Yes
Format settings, RefFrames : 1 frame
Codec ID : V_MPEG4/ISO/AVC
Duration : 1 h 58 min
Bit rate mode : Variable
Bit rate : 6 245 kb/s
Maximum bit rate : 7 800 kb/s
Width : 1 920 pixels
Height : 1 080 pixels
Display aspect ratio : 16:9
Frame rate mode : Constant
Frame rate : 23.976 (24000/1001) FPS
Color space : YUV
Chroma subsampling : 4:2:0
Bit depth : 8 bits
Scan type : Progressive
Bits/(Pixel*Frame) : 0.126
Stream size : 5.18 GiB (97%)
Title : h264_qsync_hw 1920x1080 16/9
Language : English
Default : Yes
Forced : No
Track/Position : 0

Audio
ID : 2
Format : AC-3
Format/Info : Audio Coding 3
Format settings, Endianness : Big
Codec ID : A_AC3
Duration : 1 h 58 min
Bit rate mode : Constant
Bit rate : 96.0 kb/s
Channel(s) : 1 channel
Channel positions : Front: C
Sampling rate : 48.0 kHz
Frame rate : 31.250 FPS (1536 SPF)
Bit depth : 16 bits
Compression mode : Lossy
Stream size : 81.6 MiB (1%)
Title : ac3 48000Hz 1Ch.
Language : English
Service kind : Complete Main
Default : Yes
Forced : No
Track/Position : 1

Text #1
ID : 3
Format : VobSub
Codec ID : S_VOBSUB
Codec ID/Info : Picture based subtitle format used on DVDs
Title : dvd_subtitle 1920x1080
Language : English
Default : Yes
Forced : No
Track/Position : 2

Text #2
ID : 4
Format : VobSub
Codec ID : S_VOBSUB
Codec ID/Info : Picture based subtitle format used on DVDs
Title : dvd_subtitle 1920x1080
Language : English
Default : Yes
Forced : No
Track/Position : 3

Text #3
ID : 5
Format : VobSub
Codec ID : S_VOBSUB
Codec ID/Info : Picture based subtitle format used on DVDs
Title : dvd_subtitle 1920x1080
Default : Yes
Forced : No
Track/Position : 4

Menu
00:00:00.000 : :Chapter 1
00:01:29.339 : :Chapter 2
00:03:08.271 : :Chapter 3
00:04:24.514 : :Chapter 4
00:09:02.667 : :Chapter 5
00:11:53.796 : :Chapter 6
00:13:08.412 : :Chapter 7
00:14:22.278 : :Chapter 8
00:15:19.084 : :Chapter 9
00:15:53.035 : :Chapter 10
00:16:33.659 : :Chapter 11
00:17:25.335 : :Chapter 12
00:20:25.933 : :Chapter 13
00:21:05.555 : :Chapter 14
00:23:23.693 : :Chapter 15
00:25:10.884 : :Chapter 16
00:28:30.709 : :Chapter 17
00:29:49.412 : :Chapter 18
00:33:54.991 : :Chapter 19
00:40:19.041 : :Chapter 20
00:42:26.418 : :Chapter 21
00:43:56.842 : :Chapter 22
00:47:58.417 : :Chapter 23
00:49:14.826 : :Chapter 24
00:53:59.319 : :Chapter 25
00:55:30.952 : :Chapter 26
00:59:18.888 : :Chapter 27
01:03:31.682 : :Chapter 28
01:07:20.369 : :Chapter 29
01:08:55.214 : :Chapter 30
01:13:03.003 : :Chapter 31
01:17:31.146 : :Chapter 32
01:18:06.556 : :Chapter 33
01:20:56.059 : :Chapter 34
01:23:41.891 : :Chapter 35
01:27:37.627 : :Chapter 36
01:29:36.454 : :Chapter 37
01:37:57.079 : :Chapter 38
01:43:06.013 : :Chapter 39
01:48:00.140 : :Chapter 40
01:51:16.461 : :Chapter 41
01:55:22.206 : :Chapter 42
01:56:57.343 : :Chapter 43





The Searchers (1956)


The Searchers (1956)


The Searchers (1956)


The Searchers (1956)


The Searchers (1956)