Tags
Language
Tags

The House of Violent Desire (2017)

Posted By: Tavaz
SD / HDTV IMDb
The House of Violent Desire (2017)

The House of Violent Desire (2017)
HDTV | AVI | 720x304 | MP4V-ES @ 1479 kbps | AC-3 @ 192 kbps | 1 h 57 min | 1.38 GiB
Genre: Horror, Mystery, Thriller

Awoken by screams in the night, young Evelyn Whipley is found drenched in blood and mysteriously bound to the bed - A Gothic Horror set in the 1940s, a psychosexual thriller disguised as traditional Ghost Story.

a22d1734cecf40488a791e819e6506d7.avi (1.4 GB)



General
Complete name : ./a22d1734cecf40488a791e819e6506d7.avi
Format : AVI
Format/Info : Audio Video Interleave
File size : 1.38 GiB
Duration : 1 h 57 min
Overall bit rate : 1 681 kb/s
Writing library : VirtualDub build 32593/release

Video
ID : 0
Format : MPEG-4 Visual
Format profile : Advanced Simple@L5
Format settings : BVOP2
Format settings, BVOP : 2
Format settings, QPel : No
Format settings, GMC : No warppoints
Format settings, Matrix : Default (H.263)
Muxing mode : Packed bitstream
Codec ID : XVID
Codec ID/Hint : XviD
Duration : 1 h 57 min
Bit rate : 1 480 kb/s
Width : 720 pixels
Height : 304 pixels
Display aspect ratio : 2.35:1
Frame rate : 25.000 FPS
Color space : YUV
Chroma subsampling : 4:2:0
Bit depth : 8 bits
Scan type : Progressive
Compression mode : Lossy
Bits/(Pixel*Frame) : 0.270
Stream size : 1.22 GiB (88%)
Writing library : XviD 66

Audio
ID : 1
Format : AC-3
Format/Info : Audio Coding 3
Format settings, Endianness : Big
Codec ID : 2000
Duration : 1 h 57 min
Bit rate mode : Constant
Bit rate : 192 kb/s
Channel(s) : 6 channels
Channel positions : Front: L C R, Side: L R, LFE
Sampling rate : 48.0 kHz
Frame rate : 31.250 FPS (1536 SPF)
Bit depth : 16 bits
Compression mode : Lossy
Stream size : 162 MiB (11%)
Alignment : Aligned on interleaves
Interleave, duration : 40 ms (1.00 video frame)
Interleave, preload duration : 512 ms
Service kind : Complete Main





The House of Violent Desire (2017)


The House of Violent Desire (2017)


The House of Violent Desire (2017)


The House of Violent Desire (2017)