Tags
Language
Tags

The Fighter (2010)

Posted By: Tavaz
1080p (FullHD) / BDRip IMDb
The Fighter (2010)

The Fighter (2010)
BDRip | MKV | 1920x1080 | English / English | H264 @ 5760 kbps | AC-3 @ 448 kbps | 1 h 55 min | 5.17 GiB
Subtitles: English
Genre: Drama

The Fighter, is a drama about boxer "Irish" Micky Ward's unlikely road to the world light welterweight title. His Rocky-like rise was shepherded by half-brother Dicky, a boxer-turned-trainer who rebounded in life after nearly being KO'd by drugs and crime.

48a1314a7dfe264833ae83f98b401ed7.mkv (5.2 GB)



General
Unique ID : 246925990235357366532114590174931939957 (0xB9C43742DFE1D6341033951451217275)
Complete name : ./48a1314a7dfe264833ae83f98b401ed7.mkv
Format : Matroska
Format version : Version 4 / Version 2
File size : 5.17 GiB
Duration : 1 h 55 min
Overall bit rate : 6 397 kb/s
Movie name : The.Fighter.2010.1080p.BluRay.x264-nikt0
Encoded date : UTC 2020-02-08 22:44:16 / UTC 2020-02-07T16:21:26Z
Writing application : mkvmerge v38.0.0 ('The Silent Type') 64-bit
Writing library : libebml v1.3.9 + libmatroska v1.5.2 / Lavf57.7.2

Video
ID : 1
Format : AVC
Format/Info : Advanced Video Codec
Format profile : High@L4
Format settings : CABAC / 4 Ref Frames
Format settings, CABAC : Yes
Format settings, RefFrames : 4 frames
Codec ID : V_MPEG4/ISO/AVC
Duration : 1 h 55 min
Bit rate : 5 760 kb/s
Width : 1 920 pixels
Height : 1 080 pixels
Display aspect ratio : 16:9
Frame rate mode : Constant
Frame rate : 23.976 (24000/1001) FPS
Color space : YUV
Chroma subsampling : 4:2:0
Bit depth : 8 bits
Scan type : Progressive
Bits/(Pixel*Frame) : 0.116
Stream size : 4.55 GiB (88%)
Writing library : x264 core 155 r2901 7d0ff22
Encoding settings : cabac=1 / ref=4 / deblock=1:-3:-3 / analyse=0x3:0x133 / me=umh / subme=9 / psy=1 / psy_rd=1.10:0.25 / mixed_ref=1 / me_range=32 / chroma_me=1 / trellis=2 / 8x8dct=1 / cqm=0 / deadzone=6,6 / fast_pskip=1 / chroma_qp_offset=-4 / threads=34 / lookahead_threads=3 / sliced_threads=0 / nr=0 / decimate=1 / interlaced=0 / bluray_compat=0 / constrained_intra=0 / bframes=6 / b_pyramid=2 / b_adapt=2 / b_bias=0 / direct=3 / weightb=1 / open_gop=0 / weightp=2 / keyint=240 / keyint_min=24 / scenecut=40 / intra_refresh=0 / rc_lookahead=40 / rc=2pass / mbtree=1 / bitrate=5760 / ratetol=1.0 / qcomp=0.60 / qpmin=0 / qpmax=69 / qpstep=4 / cplxblur=20.0 / qblur=0.5 / vbv_maxrate=20000 / vbv_bufsize=25000 / nal_hrd=none / filler=0 / ip_ratio=1.40 / aq=1:1.00
Default : Yes
Forced : No
Color range : Limited
Color primaries : BT.709
Transfer characteristics : BT.709
Matrix coefficients : BT.709
Statistics Tags Issue : mkvmerge v38.0.0 ('The Silent Type') 64-bit 2020-02-08 22:44:16 / mkvmerge v38.0.0 ('The Silent Type') 64-bit 2020-02-08 22:44:16 / UTC 2020-02-07T16:21:26Z
FromStats_BitRate : 5754526
FromStats_Duration : 01:55:38.474000000
FromStats_FrameCount : 166357
FromStats_StreamSize : 4990953718

Audio #1
ID : 2
Format : AC-3
Format/Info : Audio Coding 3
Format settings, Endianness : Big
Codec ID : A_AC3
Duration : 1 h 55 min
Bit rate mode : Constant
Bit rate : 448 kb/s
Channel(s) : 6 channels
Channel positions : Front: L C R, Side: L R, LFE
Sampling rate : 48.0 kHz
Frame rate : 31.250 FPS (1536 SPF)
Bit depth : 16 bits
Compression mode : Lossy
Stream size : 371 MiB (7%)
Title : Surround
Language : English
Service kind : Complete Main
Default : Yes
Forced : No
Statistics Tags Issue : mkvmerge v38.0.0 ('The Silent Type') 64-bit 2020-02-08 22:44:16 / mkvmerge v38.0.0 ('The Silent Type') 64-bit 2020-02-08 22:44:16 / UTC 2020-02-07T16:21:26Z
FromStats_BitRate : 448000
FromStats_Duration : 01:55:38.496000000
FromStats_FrameCount : 216828
FromStats_StreamSize : 388555776

Audio #2
ID : 3
Format : AC-3
Format/Info : Audio Coding 3
Format settings, Endianness : Big
Codec ID : A_AC3
Duration : 1 h 55 min
Bit rate mode : Constant
Bit rate : 192 kb/s
Channel(s) : 2 channels
Channel positions : Front: L R
Sampling rate : 48.0 kHz
Frame rate : 31.250 FPS (1536 SPF)
Bit depth : 16 bits
Compression mode : Lossy
Stream size : 159 MiB (3%)
Title : Stereo commentary
Language : English
Service kind : Complete Main
Default : No
Forced : No
Statistics Tags Issue : mkvmerge v38.0.0 ('The Silent Type') 64-bit 2020-02-08 22:44:16 / mkvmerge v38.0.0 ('The Silent Type') 64-bit 2020-02-08 22:44:16 / UTC 2020-02-07T16:21:26Z
FromStats_BitRate : 192000
FromStats_Duration : 01:55:38.528000000
FromStats_FrameCount : 216829
FromStats_StreamSize : 166524672

Text
ID : 4
Format : UTF-8
Codec ID : S_TEXT/UTF8
Codec ID/Info : UTF-8 Plain Text
Language : English
Default : Yes
Forced : No
Statistics Tags Issue : mkvmerge v38.0.0 ('The Silent Type') 64-bit 2020-02-08 22:44:16 / mkvmerge v38.0.0 ('The Silent Type') 64-bit 2020-02-08 22:44:16 / UTC 2020-02-07T16:21:26Z
FromStats_BitRate : 83
FromStats_Duration : 01:51:08.828000000
FromStats_FrameCount : 1665
FromStats_StreamSize : 69649

Menu
00:00:00.000 : :Chapter 1
00:07:11.181 : :Chapter 2
00:16:34.202 : :Chapter 3
00:22:32.351 : :Chapter 4
00:28:34.755 : :Chapter 5
00:36:20.679 : :Chapter 6
00:43:16.803 : :Chapter 7
00:51:54.945 : :Chapter 8
01:00:48.145 : :Chapter 9
01:07:08.274 : :Chapter 10
01:13:04.463 : :Chapter 11
01:20:43.505 : :Chapter 12
01:25:03.890 : :Chapter 13
01:33:54.045 : :Chapter 14
01:40:13.758 : :Chapter 15
01:50:18.529 : :Chapter 16





The Fighter (2010)


The Fighter (2010)


The Fighter (2010)


The Fighter (2010)


The Fighter (2010)