Tags
Language
Tags

Stagecoach (1939)

Posted By: Tavaz
1080p (FullHD) / BDRip IMDb
Stagecoach (1939)

Stagecoach (1939)
MKV | 1920x1080 | English | H264 @ 7240 kbps | AC-3 @ 96 kbps | 1 h 36 min | 5.03 GiB
Genre: Adventure, Western

A group of people traveling on a stagecoach find their journey complicated by the threat of Geronimo, and learn something about each other in the process.

STAGECOACH 1939 1080p Western.nl.srt (72.3 KB)
STAGECOACH 1939 1080p Western.mkv (5.0 GB)
STAGECOACH 1939 1080p Western.nl.1.srt (72.3 KB)



General
Unique ID : 99874965343971606792373998496803157361 (0x4B2337F91F62D81592B28E1D5B9B7571)
Complete name : ./STAGECOACH 1939 1080p Western.mkv
Format : Matroska
Format version : Version 4 / Version 2
File size : 5.03 GiB
Duration : 1 h 36 min
Overall bit rate mode : Variable
Overall bit rate : 7 486 kb/s
Writing application : Lavf56.30.100
Writing library : Lavf56.30.100
LABEL : Chapter 20
Language : eng
TCHAPTER : 174085600

Video
ID : 1
Format : AVC
Format/Info : Advanced Video Codec
Format profile : High@L4.1
Format settings : CABAC / 1 Ref Frames
Format settings, CABAC : Yes
Format settings, RefFrames : 1 frame
Codec ID : V_MPEG4/ISO/AVC
Duration : 1 h 36 min
Bit rate mode : Variable
Bit rate : 7 241 kb/s
Maximum bit rate : 9 000 kb/s
Width : 1 920 pixels
Height : 1 080 pixels
Display aspect ratio : 16:9
Frame rate mode : Constant
Frame rate : 23.976 (24000/1001) FPS
Color space : YUV
Chroma subsampling : 4:2:0
Bit depth : 8 bits
Scan type : Progressive
Bits/(Pixel*Frame) : 0.146
Stream size : 4.86 GiB (97%)
Title : h264_qsync_hw 1920x1080 16/9
Language : English
Default : Yes
Forced : No
Track/Position : 0

Audio
ID : 2
Format : AC-3
Format/Info : Audio Coding 3
Format settings, Endianness : Big
Codec ID : A_AC3
Duration : 1 h 36 min
Bit rate mode : Constant
Bit rate : 96.0 kb/s
Channel(s) : 1 channel
Channel positions : Front: C
Sampling rate : 48.0 kHz
Frame rate : 31.250 FPS (1536 SPF)
Bit depth : 16 bits
Compression mode : Lossy
Stream size : 66.0 MiB (1%)
Title : ac3 48000Hz 1Ch.
Language : English
Service kind : Complete Main
Default : Yes
Forced : No
Track/Position : 1

Text
ID : 3
Format : VobSub
Codec ID : S_VOBSUB
Codec ID/Info : Picture based subtitle format used on DVDs
Title : dvd_subtitle 1920x1080
Default : Yes
Forced : No
Track/Position : 2

Menu
00:00:00.000 : :Chapter 1
00:05:00.300 : :Chapter 2
00:09:59.599 : :Chapter 3
00:15:00.899 : :Chapter 4
00:19:59.198 : :Chapter 5
00:25:00.499 : :Chapter 6
00:29:59.798 : :Chapter 7
00:35:00.097 : :Chapter 8
00:40:00.398 : :Chapter 9
00:44:59.697 : :Chapter 10
00:49:59.996 : :Chapter 11
00:55:00.297 : :Chapter 12
01:00:00.597 : :Chapter 13
01:05:00.896 : :Chapter 14
01:10:00.195 : :Chapter 15
01:15:00.496 : :Chapter 16
01:20:00.796 : :Chapter 17
01:25:00.095 : :Chapter 18
01:29:59.394 : :Chapter 19
01:34:59.694 : :Chapter 20





Stagecoach (1939)


Stagecoach (1939)


Stagecoach (1939)


Stagecoach (1939)


Stagecoach (1939)