Smithsonian Channel - America in Color Series 1 (2016)

Posted By: Tutorial
720p (HD) / HDTV
Smithsonian Channel - America in Color Series 1 (2016)

Smithsonian Channel - America in Color Series 1 (2016)
HDTV | 1280 x 720 | .MKV/AVC @ 3192 Kbps | 5x~45mn | 4.34 GB
Audio: English AAC 160 Kbps, 6 channels | Subs: None
Genre: Documentary

From the 1920's through to the 1960's, America transformed from a young country on the rise into a global superpower. It's a decisive period in our nation's history that most of us have only witnessed in black and white, until now. Using digital colorization technology, we present these formative decades as few have seen them. Join us as we revisit 50 vibrant years of good times and great despair, technological triumphs, natural disasters, global villains and national heroes.

Part 1: 1920
The Jazz Age, the 1920 bombing of Wall Street, the market crash, and other seminal moments of America's Roaring 20s - carefully colorised, frame by frame, for the first time.


Part 2: 1930
From the Great Depression and Dust Bowl nightmares to Technicolor Hollywood dreams, it's the 1930s in America as only few have seen them… in full color.


Part 3: 1940
Color footage of America in the 1940s gives a rare look at the decade's most significant moments, including Nazi sympathisers in World War Two, Pearl Harbor, the Manhattan Project and the rise of post-war prosperity.


Part 4: 1950
Witness the 1950s when teens discovered rock 'n' roll, Elvis became a phenomenon, the Space Race took off, and war in Korea erupted.


Part 5: 1960
Witness the dawn of modern America, through famous and infamous images and footage, shown in full color. From the Cuban Missile Crisis to the music of the Beatles; from the March on Washington to the walk on the moon, it's the '60s like they've never been seen before.

General
Unique ID : 322113327903328283000749088729249307633 (0xF254C536EFE959CA6B96750677075BF1)
Complete name : Smithsonian.America.in.Color.Series.1.1of5.1920.mkv
Format : Matroska
Format version : Version 4 / Version 2
File size : 1.08 GiB
Duration : 45 min 55 s
Overall bit rate : 3 354 kb/s
Movie name : America in Color Series 1 []
Encoded date : UTC 2019-03-15 16:21:39
Writing application : mkvmerge v32.0.0 ('Astral Progressions') 64-bit
Writing library : libebml v1.3.7 + libmatroska v1.5.0

Video
ID : 1
Format : AVC
Format/Info : Advanced Video Codec
Format profile : High@L3.1
Format settings, CABAC : Yes
Format settings, ReFrames : 4 frames
Codec ID : V_MPEG4/ISO/AVC
Duration : 45 min 55 s
Bit rate : 3 192 kb/s
Width : 1 280 pixels
Height : 720 pixels
Display aspect ratio : 16:9
Frame rate mode : Constant
Frame rate : 25.000 FPS
Color space : YUV
Chroma subsampling : 4:2:0
Bit depth : 8 bits
Scan type : Progressive
Bits/(Pixel*Frame) : 0.139
Stream size : 1.02 GiB (95%)
Writing library : x264 core 157 r2935 545de2f
Encoding settings : cabac=1 / ref=4 / deblock=1:-1:-1 / analyse=0x3:0x113 / me=umh / subme=9 / psy=1 / psy_rd=1.00:0.15 / mixed_ref=1 / me_range=24 / chroma_me=1 / trellis=1 / 8x8dct=1 / cqm=0 / deadzone=21,11 / fast_pskip=0 / chroma_qp_offset=-3 / threads=18 / lookahead_threads=2 / sliced_threads=0 / nr=0 / decimate=1 / interlaced=0 / bluray_compat=0 / constrained_intra=0 / bframes=6 / b_pyramid=2 / b_adapt=2 / b_bias=0 / direct=1 / weightb=1 / open_gop=0 / weightp=2 / keyint=250 / keyint_min=25 / scenecut=40 / intra_refresh=0 / rc_lookahead=40 / rc=crf / mbtree=1 / crf=23.0 / qcomp=0.60 / qpmin=0 / qpmax=69 / qpstep=4 / ip_ratio=1.40 / aq=1:1.00
Language : English
Default : Yes
Forced : No
Color range : Limited
Color primaries : BT.709
Transfer characteristics : BT.709
Matrix coefficients : BT.709

Audio
ID : 2
Format : AAC
Format/Info : Advanced Audio Codec
Format profile : HE-AAC / LC
Codec ID : A_AAC
Duration : 45 min 55 s
Bit rate : 160 kb/s
Channel(s) : 6 channels
Channel positions : Front: L C R, Side: L R, LFE
Sampling rate : 48.0 kHz / 24.0 kHz
Frame rate : 23.438 FPS (1024 spf)
Compression mode : Lossy
Delay relative to video : 31 ms
Stream size : 52.5 MiB (5%)
Language : English
Default : Yes
Forced : No
Screenshots

Smithsonian Channel - America in Color Series 1 (2016)

Smithsonian Channel - America in Color Series 1 (2016)

Smithsonian Channel - America in Color Series 1 (2016)

Welcome to my blog - daily update!

Smithsonian Channel - America in Color Series 1 (2016)