Tags
Language
Tags

Sketch Artist (1992)

Posted By: Without
1080p (FullHD) / WEB-DL IMDb
Sketch Artist (1992)

Sketch Artist (1992)
WEB-DL 1080p | MKV | 1 h 29 min | 6.22 GB | 1920x1080 | AVC@10000 kb/s
English AC3@224 kb/s, 2 ch
Subs: English
Genre: Crime | Drama | Mystery | Thriller

A sketch artist for the police helps a witness recall who she saw leaving the scene of a murder, and discovers that the person is his wife. Not willing to believe she was responsible, he resketches the pictures so they don't look like her, and he begins his own investigation of the murder.



General
Sketch.Artist.1992.1080p.AMZN.WEB-DL.DD+2.0.H.264-alfaHD.mkv
Format : Matroska
Format version : Version 4 / Version 2
File size : 6.22 GB
Duration : 1 h 29 min
Overall bit rate : 9984 kb/s
Encoded date : UTC 2020-08-01 13:41:31
Writing application : mkvmerge v41.0.0 ('Smarra') 64-bit
Writing library : libebml v1.3.9 + libmatroska v1.5.2

Video
ID : 1
Format : AVC
Format/Info : Advanced Video Codec
Format profile : High@L4
Format settings, CABAC : Yes
Format settings, ReFrames : 4 frames
Codec ID : V_MPEG4/ISO/AVC
Duration : 1 h 29 min
Bit rate mode : Constant
Bit rate : 10000 kb/s
Width : 1920 pixels
Height : 1080 pixels
Display aspect ratio : 16:9
Frame rate mode : Constant
Frame rate : 23.976 (24000/1001) FPS
Color space : YUV
Chroma subsampling : 4:2:0
Bit depth : 8 bits
Scan type : Progressive
Bits/(Pixel*Frame) : 0.201
Stream size : 6.08 GB (98%)
Default : Yes
Forced : No
Color range : Limited
Color primaries : BT.709
Transfer characteristics : BT.709
Matrix coefficients : BT.709

Audio
ID : 2
Format : E-AC-3
Format/Info : Enhanced Audio Coding 3
Format settings, Endianness : Big
Codec ID : A_EAC3
Duration : 1 h 29 min
Bit rate mode : Constant
Bit rate : 224 kb/s
Channel(s) : 2 channels
Channel positions : Front: L R
Sampling rate : 48.0 kHz
Frame rate : 187.500 FPS (256 spf)
Compression mode : Lossy
Stream size : 143 MB (2%)
Language : English
Default : Yes
Forced : No

Text #1
ID : 3
Format : UTF-8
Codec ID : S_TEXT/UTF8
Codec ID/Info : UTF-8 Plain Text
Duration : 1 h 23 min
Bit rate : 55 b/s
Count of elements : 1169
Stream size : 33.9 KiB (0%)
Language : English
Default : No
Forced : No

Text #2
ID : 4
Format : UTF-8
Codec ID : S_TEXT/UTF8
Codec ID/Info : UTF-8 Plain Text
Duration : 1 h 24 min
Bit rate : 60 b/s
Count of elements : 1321
Stream size : 37.8 KiB (0%)
Title : SDH
Language : English
Default : No
Forced : No



WEB-DL 1080p Screenshots

Sketch Artist (1992)

Sketch Artist (1992)

Sketch Artist (1992)

Sketch Artist (1992)

Sketch Artist (1992)


Come Visit My Blog (•‿•)