Sicario: Day of the Soldado (2018)

Posted By: Without
1080p (FullHD) / BluRay Remux IMDb
Sicario: Day of the Soldado (2018)

Sicario: Day of the Soldado (2018)
BD-Remux | MKV | 1920x1080 | AVC@24.9 Mb/s | English DTS-HD MA@2635 kb/s
Subs: English, French, Portuguese, Spanish | 8 channels | 2 h 2 min | 23.7 GB
Genre: Action, Crime, Drama

The drug war on the U.S.-Mexico border has escalated as the cartels have begun trafficking terrorists across the US border. To fight the war, federal agent Matt Graver re-teams with the mercurial Alejandro.

IMDB - 2 nominations.


General
Sicario.Day.of.the.Soldado.2018.1080p.BluRay.REMUX.AVC.DTS-HD.MA.7.1-EPSiLON.mkv
Format : Matroska
Format version : Version 4 / Version 2
File size : 23.7 GiB
Duration : 2 h 2 min
Overall bit rate mode : Variable
Overall bit rate : 27.7 Mb/s
Encoded date : UTC 2018-09-25 13:45:22
Writing application : mkvmerge v26.0.0 ('In The Game') 64-bit
Writing library : libebml v1.3.6 + libmatroska v1.4.9

Video
ID : 1
Format : AVC
Format/Info : Advanced Video Codec
Format profile : High@L4.1
Format settings, CABAC : Yes
Format settings, ReFrames : 2 frames
Format settings, GOP : M=1, N=10
Codec ID : V_MPEG4/ISO/AVC
Duration : 2 h 2 min
Bit rate mode : Variable
Bit rate : 24.9 Mb/s
Width : 1 920 pixels
Height : 1 080 pixels
Display aspect ratio : 16:9
Frame rate mode : Constant
Frame rate : 23.976 (24000/1001) FPS
Color space : YUV
Chroma subsampling : 4:2:0
Bit depth : 8 bits
Scan type : Progressive
Bits/(Pixel*Frame) : 0.502
Stream size : 21.3 GiB (90%)
Title : MPEG-4 AVC Video / 24938 kbps / 1080p / 23.976 fps / 16:9 / High Profile 4.1
Language : English
Default : Yes
Forced : No

Audio
ID : 2
Format : DTS
Format/Info : Digital Theater Systems
Format profile : MA / Core
Mode : 16
Format settings, Endianness : Big
Codec ID : A_DTS
Duration : 2 h 2 min
Bit rate mode : Variable / Constant
Bit rate : 2 635 kb/s / 1 509 kb/s
Channel(s) : 8 channels / 6 channels
Channel positions : Front: L C R, Side: L R, Back: L R, LFE / Front: L C R, Side: L R, LFE
Sampling rate : 48.0 kHz
Frame rate : 93.750 FPS (512 spf)
Bit depth : 16 bits
Compression mode : Lossless / Lossy
Stream size : 2.25 GiB (10%)
Title : DTS-HD Master Audio / 7.1 / 48 kHz / 2635 kbps / 16-bit
Language : English
Default : Yes
Forced : No

Text #1
ID : 3
Format : PGS
Codec ID : S_HDMV/PGS
Codec ID/Info : Picture based subtitle format used on BDs/HD-DVDs
Duration : 1 h 27 min
Bit rate : 1 980 b/s
Count of elements : 344
Stream size : 1.24 MiB (0%)
Title : Forced
Language : English
Default : Yes
Forced : No

Text #2
ID : 4
Format : PGS
Codec ID : S_HDMV/PGS
Codec ID/Info : Picture based subtitle format used on BDs/HD-DVDs
Duration : 1 h 52 min
Bit rate : 20.3 kb/s
Count of elements : 1624
Stream size : 16.4 MiB (0%)
Language : English
Default : No
Forced : No

Text #3
ID : 5
Format : PGS
Codec ID : S_HDMV/PGS
Codec ID/Info : Picture based subtitle format used on BDs/HD-DVDs
Duration : 2 h 1 min
Bit rate : 24.1 kb/s
Count of elements : 2098
Stream size : 20.9 MiB (0%)
Title : SDH
Language : English
Default : No
Forced : No

Text #4
ID : 6
Format : PGS
Codec ID : S_HDMV/PGS
Codec ID/Info : Picture based subtitle format used on BDs/HD-DVDs
Duration : 2 h 1 min
Bit rate : 16.9 kb/s
Count of elements : 1588
Stream size : 14.7 MiB (0%)
Language : French
Default : No
Forced : No

Text #5
ID : 7
Format : PGS
Codec ID : S_HDMV/PGS
Codec ID/Info : Picture based subtitle format used on BDs/HD-DVDs
Duration : 2 h 1 min
Bit rate : 17.6 kb/s
Count of elements : 1648
Stream size : 15.3 MiB (0%)
Title : Brazilian
Language : Portuguese
Default : No
Forced : No

Text #6
ID : 8
Format : PGS
Codec ID : S_HDMV/PGS
Codec ID/Info : Picture based subtitle format used on BDs/HD-DVDs
Duration : 2 h 1 min
Bit rate : 13.9 kb/s
Count of elements : 1334
Stream size : 12.1 MiB (0%)
Title : Castilian
Language : Spanish
Default : No
Forced : No

Text #7
ID : 9
Format : PGS
Codec ID : S_HDMV/PGS
Codec ID/Info : Picture based subtitle format used on BDs/HD-DVDs
Duration : 2 h 1 min
Bit rate : 12.8 kb/s
Count of elements : 1336
Stream size : 11.1 MiB (0%)
Title : Latin American
Language : Spanish
Default : No
Forced : No

Menu
00:00:00.000 : en:Chapter 1
00:06:38.189 : en:Chapter 2
00:14:45.593 : en:Chapter 3
00:18:48.502 : en:Chapter 4
00:27:08.335 : en:Chapter 5
00:34:08.964 : en:Chapter 6
00:42:28.671 : en:Chapter 7
00:51:10.442 : en:Chapter 8
01:00:58.071 : en:Chapter 9
01:09:20.114 : en:Chapter 10
01:14:26.796 : en:Chapter 11
01:23:24.958 : en:Chapter 12
01:28:41.358 : en:Chapter 13
01:35:38.900 : en:Chapter 14
01:41:44.348 : en:Chapter 15
01:46:15.494 : en:Chapter 16



Screenshots

Sicario: Day of the Soldado (2018)

Sicario: Day of the Soldado (2018)

Sicario: Day of the Soldado (2018)

Sicario: Day of the Soldado (2018)

Sicario: Day of the Soldado (2018)

Sicario: Day of the Soldado (2018)

Sicario: Day of the Soldado (2018)


Come Visit My Blog (•‿•)