BBC This World - Shadow Commander: Iran's Military Mastermind (2019)

Posted By: Tutorial
720p (HD) / HDTV
BBC This World - Shadow Commander: Iran's Military Mastermind (2019)

BBC This World - Shadow Commander: Iran's Military Mastermind (2019)
HDTV | 1280 x 720 | .MKV/AVC @ 2016 Kbps | 58 min 55 s | 903 MB
Audio: English AAC 125 Kbps, 2 channels | Subs: English
Genre: Documentary

For decades one Iranian commander has dominated the brutal struggle for power and influence across the Middle East. This film tells the extraordinary story of General Qassem Suleimani with first-hand accounts of his secret deals and shifting alliances across Syria, Iraq and Lebanon.

During the Iraq War, Suleimani smuggled thousands of sophisticated bombs into the country arming the Shia militias who killed hundreds of British and American troops. But just a few years later the western coalition found themselves on the same side as Suleimani as they both fought to defeat the Islamic State.

"We saw Suleimani as a very capable charismatic, skilled, professionally competent, diabolically evil human being" says General David Petraeus, who was head of US forces in Iraq. With Suleimani now coming out of the shadows and taking centre stage in Iran's strategic ambitions, this film asks whether he is shaping up for a new conflict with the west in the region. "We can see him as the Darth Vader of contemporary middle eastern politics" says US Diplomat Ryan Crocker.

General
Unique ID : 280913857084464108047708469878068518597 (0xD3560A796BA0B19D802578198F329EC5)
Complete name : BBC.This.World.2019.Shadow.Commander.Irans.Military.Mastermind..mkv
Format : Matroska
Format version : Version 4 / Version 2
File size : 903 MiB
Duration : 58 min 55 s
Overall bit rate : 2 143 kb/s
Movie name : Shadow Commander: Iran's Military Mastermind
Encoded date : UTC 2019-03-15 01:41:21
Writing application : mkvmerge v32.0.0 ('Astral Progressions') 64-bit
Writing library : libebml v1.3.7 + libmatroska v1.5.0

Video
ID : 1
Format : AVC
Format/Info : Advanced Video Codec
Format profile : High@L3.1
Format settings, CABAC : Yes
Format settings, ReFrames : 4 frames
Codec ID : V_MPEG4/ISO/AVC
Duration : 58 min 55 s
Bit rate : 2 016 kb/s
Width : 1 280 pixels
Height : 720 pixels
Display aspect ratio : 16:9
Frame rate mode : Constant
Frame rate : 25.000 FPS
Color space : YUV
Chroma subsampling : 4:2:0
Bit depth : 8 bits
Scan type : Progressive
Bits/(Pixel*Frame) : 0.088
Stream size : 850 MiB (94%)
Writing library : x264 core 157 r2935 545de2f
Encoding settings : cabac=1 / ref=4 / deblock=1:0:0 / analyse=0x3:0x113 / me=umh / subme=9 / psy=1 / psy_rd=1.00:0.00 / mixed_ref=1 / me_range=24 / chroma_me=1 / trellis=1 / 8x8dct=1 / cqm=0 / deadzone=21,11 / fast_pskip=0 / chroma_qp_offset=-2 / threads=18 / lookahead_threads=2 / sliced_threads=0 / nr=0 / decimate=1 / interlaced=0 / bluray_compat=0 / constrained_intra=0 / bframes=6 / b_pyramid=2 / b_adapt=2 / b_bias=0 / direct=1 / weightb=1 / open_gop=0 / weightp=2 / keyint=250 / keyint_min=25 / scenecut=40 / intra_refresh=0 / rc_lookahead=40 / rc=crf / mbtree=1 / crf=20.0 / qcomp=0.60 / qpmin=0 / qpmax=69 / qpstep=4 / ip_ratio=1.40 / aq=1:1.00
Language : English
Default : Yes
Forced : No
Color range : Limited
Color primaries : BT.709
Transfer characteristics : BT.709
Matrix coefficients : BT.709

Audio
ID : 2
Format : AAC
Format/Info : Advanced Audio Codec
Format profile : LC
Codec ID : A_AAC
Duration : 58 min 55 s
Bit rate : 125 kb/s
Channel(s) : 2 channels
Channel positions : Front: L R
Sampling rate : 48.0 kHz
Frame rate : 46.875 FPS (1024 spf)
Compression mode : Lossy
Delay relative to video : 9 ms
Stream size : 52.5 MiB (6%)
Language : English
Default : Yes
Forced : No

Text
ID : 3
Format : UTF-8
Codec ID : S_TEXT/UTF8
Codec ID/Info : UTF-8 Plain Text
Duration : 58 min 2 s
Bit rate : 76 b/s
Count of elements : 728
Stream size : 32.5 KiB (0%)
Language : English
Default : No
Forced : No
Screenshots

BBC This World - Shadow Commander: Iran's Military Mastermind (2019)

BBC This World - Shadow Commander: Iran's Military Mastermind (2019)

BBC This World - Shadow Commander: Iran's Military Mastermind (2019)

Welcome to my blog - daily update!

BBC This World - Shadow Commander: Iran's Military Mastermind (2019)