TV5Monde - Seven Ages of Elvis (2018)

Posted By: notbanned
1080p (FullHD) / HDTV
TV5Monde - Seven Ages of Elvis (2018)

TV5Monde - Seven Ages of Elvis (2018)
HDTV | 1920x1080 | .MP4/AVC @ 2357 Kbps | 1 h 29 min | 1.58 GiB
Audio: English AAC 160 kbps, 2 channels | Subs: None
Genre: Documentary

Elvis was the ultimate “rise and fall” megastar – he defined the pitfalls of modern super-celebrity. His childhood immersed in “trash white” poverty exposed him to black cultural influences that created a curious and electric fusion of influences that shaped a new musical phenomenon. We discover why, Dead Elvis has become an even bigger phenomenon than he was in life, worth more annually than Michael Jackson, Frank Sinatra and David Bowie combined. By dividing Elvis’s life into seven distinct phases, we marry his achievements to his times and his historical context.

General
Complete name : Seven.Ages.of.Elvis.1080p.mp4
Format : MPEG-4
Format profile : Base Media / Version 2
Codec ID : mp42 (isom/iso2/avc1/mp41)
File size : 1.58 GiB
Duration : 1 h 29 min
Overall bit rate mode : Variable
Overall bit rate : 2 523 kb/s

Video
ID : 1
Format : AVC
Format/Info : Advanced Video Codec
Format profile : Main@L4.2
Format settings, CABAC : Yes
Format settings, ReFrames : 4 frames
Codec ID : avc1
Codec ID/Info : Advanced Video Coding
Duration : 1 h 29 min
Bit rate : 2 357 kb/s
Width : 1 920 pixels
Height : 1 080 pixels
Display aspect ratio : 16:9
Frame rate mode : Variable
Frame rate : 25.000 FPS
Minimum frame rate : 3.125 FPS
Maximum frame rate : 25.000 FPS
Color space : YUV
Chroma subsampling : 4:2:0
Bit depth : 8 bits
Scan type : Progressive
Bits/(Pixel*Frame) : 0.045
Stream size : 1.48 GiB (93%)
Writing library : x264 core 142 r2479 dd79a61
Encoding settings : cabac=1 / ref=3 / deblock=1:0:0 / analyse=0x1:0x111 / me=hex / subme=7 / psy=1 / psy_rd=1.00:0.00 / mixed_ref=1 / me_range=16 / chroma_me=1 / trellis=1 / 8x8dct=0 / cqm=0 / deadzone=21,11 / fast_pskip=1 / chroma_qp_offset=-2 / threads=12 / lookahead_threads=2 / sliced_threads=0 / nr=0 / decimate=1 / interlaced=0 / bluray_compat=0 / constrained_intra=0 / bframes=3 / b_pyramid=2 / b_adapt=1 / b_bias=0 / direct=1 / weightb=1 / open_gop=0 / weightp=2 / keyint=250 / keyint_min=25 / scenecut=40 / intra_refresh=0 / rc_lookahead=40 / rc=crf / mbtree=1 / crf=23.0 / qcomp=0.60 / qpmin=0 / qpmax=69 / qpstep=4 / vbv_maxrate=50000 / vbv_bufsize=62500 / crf_max=0.0 / nal_hrd=none / filler=0 / ip_ratio=1.40 / aq=1:1.00
Encoded date : UTC 2019-06-17 04:03:37
Tagged date : UTC 2019-06-17 04:03:37
Color range : Limited
Color primaries : BT.709
Transfer characteristics : BT.709
Matrix coefficients : BT.709

Audio
ID : 2
Format : AAC
Format/Info : Advanced Audio Codec
Format profile : LC
Codec ID : 40
Duration : 1 h 29 min
Bit rate mode : Variable
Bit rate : 160 kb/s
Channel(s) : 2 channels
Channel positions : Front: L R
Sampling rate : 48.0 kHz
Frame rate : 46.875 FPS (1024 spf)
Compression mode : Lossy
Stream size : 103 MiB (6%)
Title : Stereo / Stereo
Language : English
Default : Yes
Alternate group : 1
Encoded date : UTC 2019-06-17 04:03:37
Tagged date : UTC 2019-06-17 04:03:37


Screenshots:

TV5Monde - Seven Ages of Elvis (2018)

TV5Monde - Seven Ages of Elvis (2018)

TV5Monde - Seven Ages of Elvis (2018)

TV5Monde - Seven Ages of Elvis (2018)