Tags
Language
Tags

Robot Chicken: Star Wars Episode III (2010)

Posted By: Tavaz
1080p (FullHD) / BDRip IMDb
Robot Chicken: Star Wars Episode III (2010)

Robot Chicken: Star Wars Episode III (2010)
BDRip | MKV | 1920x1080 | English | H264 @ 11785 kbps | AC-3 @ 448 kbps | 44 min 59 s | 3.97 GiB
Subtitles: English
Genre: Comedy, Science Fiction, Animation

Robot Chicken: Star Wars Episode III, directed by Chris McKay, combines the satirical sensibilities of Green and Matthew Senreich's Robot Chicken with characters of the Star Wars universe.

c31a8a10e4001a7ae3b61cfc9f414168.mkv (4.0 GB)



General
Unique ID : 171797552401802553166889526668593891409 (0x813F014B3D31E82311CAA37D083E8851)
Complete name : ./c31a8a10e4001a7ae3b61cfc9f414168.mkv
Format : Matroska
Format version : Version 4 / Version 2
File size : 3.97 GiB
Duration : 44 min 59 s
Overall bit rate : 12.6 Mb/s
Movie name : Robot Chicken: Star Wars: Episode III [2010] BluRay - HJ
Encoded date : UTC 2021-04-17 23:39:58
Writing application : mkvmerge v56.1.0 ('My Friend') 64-bit
Writing library : libebml v1.4.2 + libmatroska v1.6.4

Video
ID : 1
Format : AVC
Format/Info : Advanced Video Codec
Format profile : High@L4.1
Format settings : CABAC / 4 Ref Frames
Format settings, CABAC : Yes
Format settings, RefFrames : 4 frames
Codec ID : V_MPEG4/ISO/AVC
Duration : 44 min 59 s
Bit rate : 11.8 Mb/s
Width : 1 920 pixels
Height : 1 080 pixels
Display aspect ratio : 16:9
Frame rate mode : Constant
Frame rate : 29.970 (30000/1001) FPS
Color space : YUV
Chroma subsampling : 4:2:0
Bit depth : 8 bits
Scan type : Progressive
Bits/(Pixel*Frame) : 0.190
Stream size : 3.70 GiB (93%)
Writing library : x264 core 157 r2935 545de2f
Encoding settings : cabac=1 / ref=4 / deblock=1:-3:-3 / analyse=0x3:0x133 / me=umh / subme=10 / psy=1 / psy_rd=1.00:0.00 / mixed_ref=1 / me_range=32 / chroma_me=1 / trellis=2 / 8x8dct=1 / cqm=0 / deadzone=21,11 / fast_pskip=0 / chroma_qp_offset=-2 / threads=24 / lookahead_threads=6 / sliced_threads=0 / nr=0 / decimate=0 / interlaced=0 / bluray_compat=0 / constrained_intra=0 / bframes=16 / b_pyramid=2 / b_adapt=2 / b_bias=0 / direct=3 / weightb=1 / open_gop=0 / weightp=2 / keyint=300 / keyint_min=30 / scenecut=40 / intra_refresh=0 / rc_lookahead=60 / rc=crf / mbtree=0 / crf=17.2 / qcomp=0.60 / qpmin=0 / qpmax=69 / qpstep=4 / vbv_maxrate=62500 / vbv_bufsize=78125 / crf_max=0.0 / nal_hrd=none / filler=0 / ip_ratio=1.40 / pb_ratio=1.30 / aq=2:1.00
Language : English
Default : Yes
Forced : No
Color range : Limited
Color primaries : BT.709
Transfer characteristics : BT.709
Matrix coefficients : BT.709

Audio #1
ID : 2
Format : AC-3
Format/Info : Audio Coding 3
Format settings, Endianness : Big
Codec ID : A_AC3
Duration : 44 min 58 s
Bit rate mode : Constant
Bit rate : 448 kb/s
Channel(s) : 6 channels
Channel positions : Front: L C R, Side: L R, LFE
Sampling rate : 48.0 kHz
Frame rate : 31.250 FPS (1536 SPF)
Bit depth : 16 bits
Compression mode : Lossy
Delay relative to video : 32 ms
Stream size : 144 MiB (4%)
Language : English
Service kind : Complete Main
Default : Yes
Forced : No

Audio #2
ID : 3
Format : AAC
Format/Info : Advanced Audio Codec
Format profile : LC
Codec ID : A_AAC-2
Duration : 44 min 58 s
Bit rate : 96.0 kb/s
Channel(s) : 2 channels
Channel positions : Front: L R
Sampling rate : 48.0 kHz
Frame rate : 46.875 FPS (1024 SPF)
Compression mode : Lossy
Delay relative to video : -21 ms
Stream size : 31.0 MiB (1%)
Title : Commentary with Actors Seth Green, Matthew Senreich, Abraham Benrubi, Ahmed Best, Keith Ferguson, and Billy Dee Williams
Language : English
Default : No
Forced : No

Audio #3
ID : 4
Format : AAC
Format/Info : Advanced Audio Codec
Format profile : LC
Codec ID : A_AAC-2
Duration : 44 min 58 s
Bit rate : 96.0 kb/s
Channel(s) : 2 channels
Channel positions : Front: L R
Sampling rate : 48.0 kHz
Frame rate : 46.875 FPS (1024 SPF)
Compression mode : Lossy
Delay relative to video : -21 ms
Stream size : 31.0 MiB (1%)
Title : Commentary with Actors Seth Green, Matthew Senreich, Bob Bergen, Donald Faison, and Breckin Meyer
Language : English
Default : No
Forced : No

Audio #4
ID : 5
Format : AAC
Format/Info : Advanced Audio Codec
Format profile : LC
Codec ID : A_AAC-2
Duration : 44 min 58 s
Bit rate : 96.0 kb/s
Channel(s) : 2 channels
Channel positions : Front: L R
Sampling rate : 48.0 kHz
Frame rate : 46.875 FPS (1024 SPF)
Compression mode : Lossy
Delay relative to video : -21 ms
Stream size : 31.0 MiB (1%)
Title : Commentary with Crew Cameron Baity, Christopher Covel, Trisha Gum, Alex Kamer, Cam Leeburg, Chris McKay, Jeanette Moffat, and Rob Ronning
Language : English
Default : No
Forced : No

Audio #5
ID : 6
Format : AAC
Format/Info : Advanced Audio Codec
Format profile : LC
Codec ID : A_AAC-2
Duration : 44 min 58 s
Bit rate : 96.0 kb/s
Channel(s) : 2 channels
Channel positions : Front: L R
Sampling rate : 48.0 kHz
Frame rate : 46.875 FPS (1024 SPF)
Compression mode : Lossy
Delay relative to video : -21 ms
Stream size : 31.0 MiB (1%)
Title : Commentary with Writers Matt Beans, Mike Fasolo, Dan Milano, Tom Root, Hugh Sterbakov, and Zeb Wells
Language : English
Default : No
Forced : No

Text
ID : 7
Format : UTF-8
Codec ID : S_TEXT/UTF8
Codec ID/Info : UTF-8 Plain Text
Duration : 44 min 30 s
Bit rate : 89 b/s
Count of elements : 1301
Stream size : 29.0 KiB (0%)
Language : English
Default : No
Forced : No

Menu
00:00:00.000 : :Chapter 1
00:04:08.715 : :Chapter 2
00:11:16.309 : :Chapter 3
00:21:03.596 : :Chapter 4
00:32:59.277 : :Chapter 5
00:41:35.326 : :Chapter 6





Robot Chicken: Star Wars Episode III (2010)


Robot Chicken: Star Wars Episode III (2010)


Robot Chicken: Star Wars Episode III (2010)


Robot Chicken: Star Wars Episode III (2010)


Robot Chicken: Star Wars Episode III (2010)