RTE - Reeling in the Years 1990 (2000)

Posted By: notbanned
n/a / n/a
RTE - Reeling in the Years 1990 (2000)

RTE - Reeling in the Years 1990 (2000)
DVDRip | 720x540 | .MKV/AVC @ 1336 Kbps | 2 h 50 min | 1.75 GiB
Audio: English AAC 130 kbps, 2 channels | Subs: None
Genre: Documentary

A review of events in Ireland in the 1990's. News archive footage features, along with subtitles as the means of narration, to recount important national and international events of the time. Music from the selected year plays across the footage, with occasional scenes of live performances or music videos, often (but by no means exclusively) by an Irish artist. No advertisements are shown during the broadcast (apart from the occasional old advert dating from the relevant year).

General
Unique ID : 37740877427958473301973486349342777218 (0x1C64A0EBB4DB6CF0B870610E2A789F82)
Complete name : RTE.Reeling.in.the.Years.1990.mkv
Format : Matroska
Format version : Version 4 / Version 2
File size : 1.75 GiB
Duration : 2 h 50 min
Overall bit rate : 1 468 kb/s

Video
ID : 1
Format : AVC
Format/Info : Advanced Video Codec
Format profile : Main@L3.1
Format settings, CABAC : Yes
Format settings, ReFrames : 4 frames
Codec ID : V_MPEG4/ISO/AVC
Duration : 2 h 50 min
Bit rate : 1 336 kb/s
Width : 720 pixels
Height : 540 pixels
Display aspect ratio : 4:3
Frame rate mode : Constant
Frame rate : 25.000 FPS
Color space : YUV
Chroma subsampling : 4:2:0
Bit depth : 8 bits
Scan type : Progressive
Bits/(Pixel*Frame) : 0.137
Stream size : 1.59 GiB (91%)
Writing library : x264 core 157 r2935 545de2f
Encoding settings : cabac=1 / ref=4 / deblock=1:0:0 / analyse=0x1:0x111 / me=umh / subme=9 / psy=1 / psy_rd=1.00:0.00 / mixed_ref=1 / me_range=16 / chroma_me=1 / trellis=1 / 8x8dct=0 / cqm=0 / deadzone=21,11 / fast_pskip=0 / chroma_qp_offset=-2 / threads=17 / lookahead_threads=1 / sliced_threads=0 / nr=0 / decimate=1 / interlaced=0 / bluray_compat=0 / constrained_intra=0 / bframes=6 / b_pyramid=2 / b_adapt=2 / b_bias=0 / direct=1 / weightb=1 / open_gop=0 / weightp=2 / keyint=250 / keyint_min=25 / scenecut=40 / intra_refresh=0 / rc_lookahead=40 / rc=crf / mbtree=1 / crf=23.0 / qcomp=0.60 / qpmin=0 / qpmax=69 / qpstep=4 / ip_ratio=1.40 / aq=1:1.00
Language : English
Default : Yes
Forced : No

Audio
ID : 2
Format : AAC
Format/Info : Advanced Audio Codec
Format profile : LC
Codec ID : A_AAC
Duration : 2 h 50 min
Bit rate : 130 kb/s
Channel(s) : 2 channels
Channel positions : Front: L R
Sampling rate : 48.0 kHz
Frame rate : 46.875 FPS (1024 spf)
Compression mode : Lossy
Delay relative to video : 9 ms
Stream size : 158 MiB (9%)
Language : English
Default : Yes
Forced : No


Screenshots:

RTE - Reeling in the Years 1990 (2000)

RTE - Reeling in the Years 1990 (2000)

RTE - Reeling in the Years 1990 (2000)

RTE - Reeling in the Years 1990 (2000)