Please register here if you want to download anything!

If domain in your address bar is different from the list below
PLEASE LEAVE THAT SITE IMMEDIATELY
❗IT'S A DANGEROUS FAKE❗



Spicy Magazines for Men! ;-)

Smithsonian Ch. - Planes, Cranes and Rockets (2013)

Posted By: notbanned
1080p (FullHD) / HDTV
Smithsonian Ch. - Planes, Cranes and Rockets (2013)

Smithsonian Ch. - Planes, Cranes and Rockets (2013)
HDTV | 1920x1080 | .MP4/AVC @ 4557 Kbps | 45 min 59 s | 1.51 GiB
Audio: English AAC 132 kbps, 2 channels | Subs: English
Genre: Documentary

The Smithsonian National Air and Space Museum holds more than 70,000 objects, including the 1903 Wright Flyer, the Spirit of St. Louis, and the Apollo 11 capsule. Meet the people who keep it running, and see how they tackle their biggest challenge to date. They must move all of the contents from the crumbling Paul E. Garber Facility in Maryland to the Steven Udvar-Hazy Center in Virginia. And everything, from a massive F100 supersonic fighter jet to small toys and games, must arrive without a scratch.


General
Complete name : Planes.Cranes.and.Rockets.1080p.mp4
Format : MPEG-4
Format profile : Base Media
Codec ID : isom (isom)
File size : 1.51 GiB
Duration : 45 min 59 s
Overall bit rate mode : Variable
Overall bit rate : 4 694 kb/s

Video
ID : 1
Format : AVC
Format/Info : Advanced Video Codec
Format profile : High@L4.1
Format settings, CABAC : No
Format settings, ReFrames : 1 frame
Format settings, GOP : M=1, N=12
Codec ID : avc1
Codec ID/Info : Advanced Video Coding
Duration : 45 min 59 s
Bit rate : 4 557 kb/s
Maximum bit rate : 23.7 Mb/s
Width : 1 920 pixels
Height : 1 080 pixels
Display aspect ratio : 16:9
Frame rate mode : Constant
Frame rate : 29.970 (30000/1001) FPS
Color space : YUV
Chroma subsampling : 4:2:0
Bit depth : 8 bits
Scan type : Progressive
Bits/(Pixel*Frame) : 0.073
Stream size : 1.46 GiB (97%)
Encoded date : UTC 2019-08-12 16:42:48
Tagged date : UTC 2019-08-12 18:45:36

Audio
ID : 2
Format : AAC
Format/Info : Advanced Audio Codec
Format profile : LC
Codec ID : 40
Duration : 45 min 59 s
Bit rate mode : Variable
Bit rate : 132 kb/s
Maximum bit rate : 186 kb/s
Channel(s) : 2 channels
Channel positions : Front: L R
Sampling rate : 48.0 kHz
Frame rate : 46.875 FPS (1024 spf)
Compression mode : Lossy
Stream size : 44.2 MiB (3%)
Encoded date : UTC 2019-08-12 18:45:29
Tagged date : UTC 2019-08-12 18:45:36

Text
ID : 3
Format : Timed Text
Codec ID : tx3g
Duration : 45 min 50 s
Bit rate mode : Variable
Bit rate : 235 b/s
Stream size : 78.8 KiB (0%)
Forced : No
Encoded date : UTC 2019-08-12 18:45:35
Tagged date : UTC 2019-08-12 18:45:36


Screenshots:

Smithsonian Ch. - Planes, Cranes and Rockets (2013)

Smithsonian Ch. - Planes, Cranes and Rockets (2013)

Smithsonian Ch. - Planes, Cranes and Rockets (2013)

Smithsonian Ch. - Planes, Cranes and Rockets (2013)