Tags
Language
Tags

Pay the Ghost (2015)

Posted By: Tavaz
1080p (FullHD) / BDRip IMDb
Pay the Ghost (2015)

Pay the Ghost (2015)
BDRip | MKV | 1920x800 | English | H264 @ 17339 kbps | DTS @ 1509 kbps | 1 h 34 min | 12.6 GiB
Subtitles: English
Genre: Fantasy, Thriller

One year after his young son disappeared during a Halloween carnival, Mike Cole is haunted by eerie images and terrifying messages he can’t explain. Together with his estranged wife, he will stop at nothing to unravel the mystery and find their son—and, in doing so, he unearths a legend that refuses to remain buried in the past.

4810bd8f106745e4913642e6fe2622ea.mkv (12.6 GB)



General
Unique ID : 224943328195204957340252019256250708572 (0xA93A82580E5260BAA1B7F5323651B25C)
Complete name : ./4810bd8f106745e4913642e6fe2622ea.mkv
Format : Matroska
Format version : Version 4 / Version 2
File size : 12.6 GiB
Duration : 1 h 34 min
Overall bit rate : 19.2 Mb/s
Encoded date : UTC 2015-10-29 20:39:43
Writing application : mkvmerge v8.5.1 ('Where you lead I will follow') 64bit
Writing library : libebml v1.3.3 + libmatroska v1.4.4

Video
ID : 1
Format : AVC
Format/Info : Advanced Video Codec
Format profile : High@L4.1
Format settings : CABAC / 5 Ref Frames
Format settings, CABAC : Yes
Format settings, RefFrames : 5 frames
Codec ID : V_MPEG4/ISO/AVC
Duration : 1 h 34 min
Bit rate : 17.3 Mb/s
Width : 1 920 pixels
Height : 800 pixels
Display aspect ratio : 2.40:1
Frame rate mode : Constant
Frame rate : 23.976 (24000/1001) FPS
Color space : YUV
Chroma subsampling : 4:2:0
Bit depth : 8 bits
Scan type : Progressive
Bits/(Pixel*Frame) : 0.471
Stream size : 11.4 GiB (90%)
Writing library : x264 core 148 r2638+53 bb29004 t_mod_Custom [8-bit@all X86_64]
Encoding settings : cabac=1 / ref=5 / deblock=1:-3:-3 / analyse=0x3:0x133 / me=umh / subme=11 / psy=1 / fade_compensate=0.00 / psy_rd=0.98:0.00 / mixed_ref=1 / me_range=48 / chroma_me=1 / trellis=2 / 8x8dct=1 / cqm=0 / deadzone=21,11 / fast_pskip=0 / chroma_qp_offset=-2 / threads=24 / lookahead_threads=4 / sliced_threads=0 / nr=0 / decimate=1 / interlaced=0 / bluray_compat=0 / constrained_intra=0 / fgo=0 / bframes=7 / b_pyramid=2 / b_adapt=2 / b_bias=0 / direct=3 / weightb=1 / open_gop=0 / weightp=2 / keyint=240 / keyint_min=23 / scenecut=40 / intra_refresh=0 / rc_lookahead=240 / rc=crf / mbtree=0 / crf=16.6000 / qcomp=0.63 / qpmin=0:0:0 / qpmax=51:51:51 / qpstep=4 / vbv_maxrate=40000 / vbv_bufsize=35000 / crf_max=0.0 / nal_hrd=none / filler=0 / ip_ratio=1.20 / pb_ratio=1.10 / aq=2:0.65 / aq-sensitivity=10.00 / aq-factor=1.00:1.00:1.00 / aq2=0 / aq3=0 / zones=26,162,crf=16.0/642,695,crf=16.0/50836,55074,crf=15.3/103508,103631,crf=16.0/103709,103759,crf=16.0/105996,106144,crf=15.3/107347,107553,crf=16.0/108120,111364,crf=15.3/111727,111881,crf=16.0/112122,112493,crf=16.0/112621,116032,crf=15.3/120748,121300,crf=16.0/121373,121411,crf=16.0/121658,122332,crf=16.0/122638,122673,crf=16.0/122918,122981,crf=16.0/123142,125165,crf=16.0/129630,135382,crf=20.0
Language : English
Default : Yes
Forced : No

Audio
ID : 2
Format : DTS
Format/Info : Digital Theater Systems
Mode : 16
Format settings, Endianness : Big
Codec ID : A_DTS
Duration : 1 h 34 min
Bit rate mode : Constant
Bit rate : 1 509 kb/s
Channel(s) : 6 channels
Channel positions : Front: L C R, Side: L R, LFE
Sampling rate : 48.0 kHz
Frame rate : 93.750 FPS (512 SPF)
Bit depth : 24 bits
Compression mode : Lossy
Stream size : 1 016 MiB (8%)
Language : English
Default : Yes
Forced : No

Text #1
ID : 3
Format : UTF-8
Codec ID : S_TEXT/UTF8
Codec ID/Info : UTF-8 Plain Text
Language : English
Default : No
Forced : No

Text #2
ID : 4
Format : UTF-8
Codec ID : S_TEXT/UTF8
Codec ID/Info : UTF-8 Plain Text
Title : (SDH)
Language : English
Default : No
Forced : No

Menu
00:00:00.000 : en:Chapter01
00:07:42.629 : en:Chapter02
00:15:03.694 : en:Chapter03
00:25:59.308 : en:Chapter04
00:31:40.482 : en:Chapter05
00:38:20.089 : en:Chapter06
00:48:40.751 : en:Chapter07
00:58:50.527 : en:Chapter08
01:06:41.539 : en:Chapter09
01:12:39.063 : en:Chapter10
01:16:41.847 : en:Chapter11
01:28:33.558 : en:Chapter12





Pay the Ghost (2015)


Pay the Ghost (2015)


Pay the Ghost (2015)


Pay the Ghost (2015)


Pay the Ghost (2015)