Tags
Language
Tags

Paula Rego: Telling Tales (2009)

Posted By: Tutorial
SD / DVDRip
Paula Rego: Telling Tales (2009)

Paula Rego: Telling Tales (2009)
DVDRip | 704 x 400 | .AVI/XviD @ 1894 Kbps | 47mn 25s | English AC-3 192 Kbps, 2 channels | 710 MB
Genre: Documentary, Arts, Biography

Born in Portugal, Paula Rego is that great rarity a Britain artist with an international reputation. Her lasting reputation of is beyond doubt. Nicholas Serota, director of the Tate, describes her as a major figure that has "taken her own childhood experiences, memories, fantasies and fears, and given them universal significance". For Germaine Greer, whose 1995 portrait by Rego hangs in the National Portrait Gallery, her work is both feminist and subversive; "It is not often given to women to recognise themselves in painting, still less to see their private world, their dreams, the insides of their heads, projected on such a scale and so immodestly, with such depth and colour." Art critic Robert Hughes says simply that Rego is the "best painter of women's experience alive today". Paula Rego: telling tales follows Rego over a period of 12 months. During six interviews she talks with humour and candour to reveal the private stories that are woven into her pictures; she faces her demons, the same demons that form the compulsion to make work which keeps her monsters at bay. The result is an intimate and funny film that allows us to peek into the private world of Paula Rego.

General
Complete name : Paula.Rego.Telling.Tales.avi
Format : AVI
Format/Info : Audio Video Interleave
File size : 710 MiB
Duration : 47mn 25s
Overall bit rate : 2 093 Kbps
Writing application : VirtualDubMod 1.5.4.1 (build 2178/release)
Writing library : VirtualDubMod build 2178/release

Video
ID : 0
Format : MPEG-4 Visual
Format profile : Advanced Simple@L5
Format settings, BVOP : No
Format settings, QPel : No
Format settings, GMC : No warppoints
Format settings, Matrix : Custom
Codec ID : XVID
Codec ID/Hint : XviD
Duration : 47mn 25s
Bit rate : 1 894 Kbps
Width : 704 pixels
Height : 400 pixels
Display aspect ratio : 16:9
Frame rate : 25.000 fps
Color space : YUV
Chroma subsampling : 4:2:0
Bit depth : 8 bits
Scan type : Progressive
Compression mode : Lossy
Bits/(Pixel*Frame) : 0.269
Stream size : 643 MiB (90%)
Writing library : XviD 1.2.1 (UTC 2008-12-04)

Audio
ID : 1
Format : AC-3
Format/Info : Audio Coding 3
Mode extension : CM (complete main)
Codec ID : 2000
Duration : 47mn 25s
Bit rate mode : Constant
Bit rate : 192 Kbps
Channel(s) : 2 channels
Channel positions : Front: L R
Sampling rate : 48.0 KHz
Bit depth : 16 bits
Compression mode : Lossy
Stream size : 65.1 MiB (9%)
Alignment : Split accross interleaves
Interleave, duration : 96 ms (2.40 video frames)
Interleave, preload duration : 96 ms
Screenshots

Paula Rego: Telling Tales (2009)

Paula Rego: Telling Tales (2009)

Paula Rego: Telling Tales (2009)

Paula Rego: Telling Tales (2009)

Welcome to my blog - daily update!

Paula Rego: Telling Tales (2009)