Tags
Language
Tags

Night of the Living Dead (1968)

Posted By: Tavaz
1080p (FullHD) / BDRip IMDb
Night of the Living Dead (1968)

Night of the Living Dead (1968)
BDRip | MKV | 1480x1080 | English | H265 @ 2682 kbps | PCM @ 1152 kbps | 1 h 36 min | 2.60 GiB
Subtitles: English
Genre: Horror

A group of people try to survive an attack of bloodthirsty zombies while trapped in a rural Pennsylvania farmhouse. Although not the first zombie film, Night of the Living Dead is the progenitor of the contemporary "zombie apocalypse" horror film, and it greatly influenced the modern pop-culture zombie archetype.

a7548f8a840f44a98729cf5fdd765e0f.mkv (2.6 GB)



General
Complete name : ./a7548f8a840f44a98729cf5fdd765e0f.mkv
Format : Matroska
Format version : Version 2
File size : 2.60 GiB
Duration : 1 h 36 min
Overall bit rate : 3 848 kb/s
Encoded date : UTC 2018-02-16 08:47:34
Writing application : DVDFab 10.0.8.1
Writing library : libebml v1.3.4 + libmatroska v1.4.5

Video
ID : 1
Format : HEVC
Format/Info : High Efficiency Video Coding
Format profile : Main 10@L4@Main
Codec ID : V_MPEGH/ISO/HEVC
Duration : 1 h 36 min
Bit rate : 2 682 kb/s
Width : 1 480 pixels
Height : 1 080 pixels
Display aspect ratio : 1.370
Frame rate mode : Constant
Frame rate : 23.976 (24000/1001) FPS
Color space : YUV
Chroma subsampling : 4:2:0
Bit depth : 10 bits
Bits/(Pixel*Frame) : 0.070
Stream size : 1.81 GiB (70%)
Default : Yes
Forced : No
Color range : Limited
Color primaries : BT.709
Transfer characteristics : BT.709
Matrix coefficients : BT.709

Audio
ID : 2
Format : PCM
Codec ID : A_PCM/INT/LIT
Duration : 1 h 36 min
Bit rate mode : Constant
Bit rate : 1 152 kb/s
Sampling rate : 48.0 kHz
Frame rate : 32.000 FPS (1500 SPF)
Bit depth : 24 bits
Stream size : 796 MiB (30%)
Language : English
Default : Yes
Forced : No

Text
ID : 3
Format : VobSub
Codec ID : S_VOBSUB
Codec ID/Info : Picture based subtitle format used on DVDs
Duration : 1 h 33 min
Bit rate : 13.0 kb/s
Count of elements : 1054
Stream size : 8.66 MiB (0%)
Language : English
Default : No
Forced : No

Menu
00:00:00.000 : en:(01)00:00:00:000
00:02:47.167 : en:(02)00:02:47:167
00:07:09.345 : en:(03)00:07:09:345
00:10:56.197 : en:(04)00:10:56:197
00:14:10.266 : en:(05)00:14:10:266
00:16:50.134 : en:(06)00:16:50:134
00:19:36.175 : en:(07)00:19:36:175
00:20:45.118 : en:(08)00:20:45:118
00:25:12.260 : en:(09)00:25:12:260
00:32:31.991 : en:(10)00:32:31:991
00:35:43.808 : en:(11)00:35:43:808
00:40:30.928 : en:(12)00:40:30:928
00:45:29.643 : en:(13)00:45:29:643
00:49:45.065 : en:(14)00:49:45:065
00:53:40.967 : en:(15)00:53:40:967
01:03:21.839 : en:(16)01:03:21:839
01:07:30.838 : en:(17)01:07:30:838
01:15:02.748 : en:(18)01:15:02:748
01:18:40.132 : en:(19)01:18:40:132
01:21:21.376 : en:(20)01:21:21:376
01:26:10.290 : en:(21)01:26:10:290
01:30:01.229 : en:(22)01:30:01:229
01:34:24.617 : en:(23)01:34:24:617
01:36:36.207 : en:(24)01:36:36:207





Night of the Living Dead (1968)


Night of the Living Dead (1968)


Night of the Living Dead (1968)


Night of the Living Dead (1968)


Night of the Living Dead (1968)