BBC Natural World - Humpback Whales: A Detective Story (2019)

Posted By: notbanned
720p (HD) / HDTV
BBC Natural World - Humpback Whales: A Detective Story (2019)

BBC Natural World - Humpback Whales: A Detective Story (2019)
HDTV | 1280x720 | .MP4/AVC @ 3435 Kbps | 59 min 9 s | 1.53 GiB
Audio: English AAC 259 kbps, 2 channels | Subs: None
Genre: Documentary

On 12 September 2015, a 30-ton humpback whale breached and landed on Tom Mustill and his friend Charlotte Kinloch as they paddled a sea kayak in Monterey Bay, California. Incredibly, both survived the incident, but the near-death experience haunted documentary maker Tom and left him wondering if the whale was deliberately trying to hurt them. To find the answer, Tom returned to California in 2018 to investigate. Tom meets those who have survived similar hair-raising encounters and the experts who know the whales best. What he discovers raises far bigger questions, not just about what happened that day but also about our relationship with whales and their future alongside us.

General
Complete name : Natural.World.Humpback.Whales.A.Detective.Story.720p.mp4
Format : MPEG-4
Format profile : Base Media
Codec ID : isom (isom/iso2/avc1/mp41)
File size : 1.53 GiB
Duration : 59 min 9 s
Overall bit rate : 3 703 kb/s

Video
ID : 1
Format : AVC
Format/Info : Advanced Video Codec
Format profile : High@L3.1
Format settings, CABAC : Yes
Format settings, ReFrames : 2 frames
Codec ID : avc1
Codec ID/Info : Advanced Video Coding
Duration : 59 min 9 s
Bit rate : 3 435 kb/s
Width : 1 280 pixels
Height : 720 pixels
Display aspect ratio : 16:9
Frame rate mode : Constant
Frame rate : 25.000 FPS
Color space : YUV
Chroma subsampling : 4:2:0
Bit depth : 8 bits
Scan type : Progressive
Bits/(Pixel*Frame) : 0.149
Stream size : 1.42 GiB (93%)

Audio
ID : 2
Format : AAC
Format/Info : Advanced Audio Codec
Format profile : LC
Codec ID : 40
Duration : 59 min 8 s
Bit rate mode : Constant
Bit rate : 259 kb/s
Channel(s) : 2 channels
Channel positions : Front: L R
Sampling rate : 48.0 kHz
Frame rate : 46.875 FPS (1024 spf)
Compression mode : Lossy
Stream size : 109 MiB (7%)
Language : English
Default : Yes
Alternate group : 1


Screenshots:

BBC Natural World - Humpback Whales: A Detective Story (2019)

BBC Natural World - Humpback Whales: A Detective Story (2019)

BBC Natural World - Humpback Whales: A Detective Story (2019)

BBC Natural World - Humpback Whales: A Detective Story (2019)