Sci. Ch. - Mysteries of the Abandoned: Secret of Supervillain Island (2019)

Posted By: notbanned
720p (HD) / HDTV
Sci. Ch. - Mysteries of the Abandoned: Secret of Supervillain Island (2019)

Sci. Ch. - Mysteries of the Abandoned: Secret of Supervillain Island (2019)
HDTV | 1280x720 | .MP4/AVC @ 3239 Kbps | 1 h 24 min | 2.02 GiB
Audio: English AAC 160 kbps, 2 channels | Subs: English
Genre: Documentary

On a strange island off the coast of Croatia, the mysterious ruins of a long-abandoned hideout look like they once belonged to a James Bond supervillain, and new discoveries reveal why it was built and why they were abandoned.

General
Complete name : Mysteries.of.the.Abandoned..Worlds.Strangest.Ghost.Towns.720p.mp4
Format : MPEG-4
Format profile : Base Media
Codec ID : isom (isom)
File size : 2.02 GiB
Duration : 1 h 24 min
Overall bit rate mode : Variable
Overall bit rate : 3 401 kb/s

Video
ID : 1
Format : AVC
Format/Info : Advanced Video Codec
Format profile : High@L4.1
Format settings, CABAC : No
Format settings, ReFrames : 1 frame
Format settings, GOP : M=1, N=12
Codec ID : avc1
Codec ID/Info : Advanced Video Coding
Duration : 1 h 24 min
Bit rate : 3 239 kb/s
Maximum bit rate : 14.7 Mb/s
Width : 1 280 pixels
Height : 720 pixels
Display aspect ratio : 16:9
Frame rate mode : Constant
Frame rate : 23.976 (24000/1001) FPS
Color space : YUV
Chroma subsampling : 4:2:0
Bit depth : 8 bits
Scan type : Progressive
Bits/(Pixel*Frame) : 0.147
Stream size : 1.92 GiB (95%)
Language : English
Encoded date : UTC 2019-04-14 12:22:42
Tagged date : UTC 2019-04-14 14:00:47

Audio
ID : 2
Format : AAC
Format/Info : Advanced Audio Codec
Format profile : LC
Codec ID : 40
Duration : 1 h 24 min
Bit rate mode : Variable
Bit rate : 160 kb/s
Maximum bit rate : 245 kb/s
Channel(s) : 2 channels
Channel positions : Front: L R
Sampling rate : 48.0 kHz
Frame rate : 46.875 FPS (1024 spf)
Compression mode : Lossy
Stream size : 97.2 MiB (5%)
Language : English
Encoded date : UTC 2019-04-14 14:00:34
Tagged date : UTC 2019-04-14 14:00:47

Text
ID : 3
Format : Timed Text
Codec ID : tx3g
Duration : 1 h 24 min
Bit rate mode : Variable
Bit rate : 115 b/s
Stream size : 71.3 KiB (0%)
Forced : No
Encoded date : UTC 2019-04-14 14:00:47
Tagged date : UTC 2019-04-14 14:00:47


Screenshots:

Sci. Ch. - Mysteries of the Abandoned: Secret of Supervillain Island (2019)

Sci. Ch. - Mysteries of the Abandoned: Secret of Supervillain Island (2019)

Sci. Ch. - Mysteries of the Abandoned: Secret of Supervillain Island (2019)

Sci. Ch. - Mysteries of the Abandoned: Secret of Supervillain Island (2019)