Tags
Language
Tags

Miracle on 34th Street (1994)

Posted By: Tavaz
1080p (FullHD) / BDRip IMDb
Miracle on 34th Street (1994)

Miracle on 34th Street (1994)
BDRip | MKV | 1920x1040 | English | H265 @ 2936 kbps | AC-3 @ 448 kbps | 1 h 54 min | 2.71 GiB
Subtitles: English
Genre: Drama, Fantasy, Family

A little girl discovers dreams can come true if you really believe. Six-year-old Susan Walker has doubts about childhood's most enduring miracle - Santa Claus. Her mother told her the 'secret' about Santa a long time ago. But after meeting a special department store Santa who's convinced he's the real thing, Susan is given the most precious gift of all something to believe in.

8a75cccdb72b4976a94b7db93c41eb4e.mkv (2.7 GB)



General
Complete name : ./8a75cccdb72b4976a94b7db93c41eb4e.mkv
Format : Matroska
Format version : Version 2
File size : 2.71 GiB
Duration : 1 h 54 min
Overall bit rate : 3 397 kb/s
Encoded date : UTC 2018-02-09 23:04:44
Writing application : DVDFab 10.0.8.1
Writing library : libebml v1.3.4 + libmatroska v1.4.5

Video
ID : 1
Format : HEVC
Format/Info : High Efficiency Video Coding
Format profile : Main 10@L4@Main
Codec ID : V_MPEGH/ISO/HEVC
Duration : 1 h 53 min
Bit rate : 2 936 kb/s
Width : 1 920 pixels
Height : 1 040 pixels
Display aspect ratio : 1.85:1
Frame rate mode : Constant
Frame rate : 23.976 (24000/1001) FPS
Color space : YUV
Chroma subsampling : 4:2:0
Bit depth : 10 bits
Bits/(Pixel*Frame) : 0.061
Stream size : 2.34 GiB (86%)
Default : Yes
Forced : No
Color range : Limited
Color primaries : BT.709
Transfer characteristics : BT.709
Matrix coefficients : BT.709

Audio
ID : 2
Format : AC-3
Format/Info : Audio Coding 3
Format settings, Endianness : Big
Codec ID : A_AC3
Duration : 1 h 54 min
Bit rate mode : Constant
Bit rate : 448 kb/s
Channel(s) : 6 channels
Channel positions : Front: L C R, Side: L R, LFE
Sampling rate : 48.0 kHz
Frame rate : 31.250 FPS (1536 SPF)
Bit depth : 16 bits
Compression mode : Lossy
Stream size : 365 MiB (13%)
Language : English
Service kind : Complete Main
Default : Yes
Forced : No

Text
ID : 3
Format : VobSub
Codec ID : S_VOBSUB
Codec ID/Info : Picture based subtitle format used on DVDs
Duration : 1 h 51 min
Bit rate : 11.2 kb/s
Count of elements : 1458
Stream size : 8.94 MiB (0%)
Language : English
Default : No
Forced : No

Menu
00:00:00.000 : en:(01)00:00:00:000
00:03:29.626 : en:(02)00:03:29:626
00:06:39.732 : en:(03)00:06:39:732
00:10:13.654 : en:(04)00:10:13:654
00:14:42.172 : en:(05)00:14:42:172
00:18:45.374 : en:(06)00:18:45:374
00:23:21.149 : en:(07)00:23:21:149
00:27:17.844 : en:(08)00:27:17:844
00:33:08.945 : en:(09)00:33:08:945
00:38:27.054 : en:(10)00:38:27:054
00:43:02.162 : en:(11)00:43:02:162
00:49:21.792 : en:(12)00:49:21:792
00:55:29.659 : en:(13)00:55:29:659
00:57:03.586 : en:(14)00:57:03:586
01:02:10.977 : en:(15)01:02:10:977
01:05:01.981 : en:(16)01:05:01:981
01:11:27.199 : en:(17)01:11:27:199
01:14:11.196 : en:(18)01:14:11:196
01:24:01.244 : en:(19)01:24:01:244
01:28:57.582 : en:(20)01:28:57:582
01:32:01.599 : en:(21)01:32:01:599
01:40:15.300 : en:(22)01:40:15:300
01:44:02.861 : en:(23)01:44:02:861
01:49:48.582 : en:(24)01:49:48:582
01:54:00.291 : en:(25)01:54:00:291





Miracle on 34th Street (1994)


Miracle on 34th Street (1994)


Miracle on 34th Street (1994)


Miracle on 34th Street (1994)


Miracle on 34th Street (1994)