Please register here if you want to download anything!

If domain in your address bar is different from the list below
PLEASE LEAVE THAT SITE IMMEDIATELY
❗IT'S A DANGEROUS FAKE❗



Spicy Magazines for Men! ;-)

Susuz yaz / Dry Summer (1963)

Posted By: RSU75
Susuz yaz / Dry Summer (1963)

Martin Scorsese’s World Cinema Project (2013) [Criterion Collection]. Susuz yaz / Dry Summer (1963)
BDRip | MKV | AVC 960x720, ~ 2.6 Mbps | 1hr 32mn | 1.83 GB
Turkish: AC3, 1 ch, 256 kbps
Subtitles: English
Genre: Drama, Family
IMDB Rating: 8.1/10 (2.561 votes)


Directors: Metin Erksan
Writers: Necati Cumali (story), Metin Erksan
Stars: Erol Tas, Hülya Koçyigit, Ulvi Dogan

A tobacco farmer tries to ruin his competitors crops by diverting water to his property.




General
Unique ID : 177759831566277327380298827257684362893 (0x85BB4C5A42CC4DF7B22F441E7B4B068D)
Complete name : M:\MScors2es.WrldCnmPrjct.V4.DrySummer.7p\MScors2es.WrldCnmPrjct.V4.DrySummer.7p.mkv
Format : Matroska
Format version : Version 4 / Version 2
File size : 1.83 GiB
Duration : 1 h 32 min
Overall bit rate : 2 851 kb/s
Movie name : Release RSU75
Encoded date : UTC 2017-09-25 04:48:00
Writing application : mkvmerge v6.6.0 ('The Edge Of The In Between') built on Dec 1 2013 17:55:00
Writing library : libebml v1.3.0 + libmatroska v1.4.1

Video
ID : 1
Format : AVC
Format/Info : Advanced Video Codec
Format profile : High@L3.1
Format settings : CABAC / 4 Ref Frames
Format settings, CABAC : Yes
Format settings, RefFrames : 4 frames
Codec ID : V_MPEG4/ISO/AVC
Duration : 1 h 32 min
Bit rate : 2 600 kb/s
Width : 960 pixels
Height : 720 pixels
Display aspect ratio : 4:3
Frame rate mode : Constant
Frame rate : 23.976 (23976/1000) FPS
Color space : YUV
Chroma subsampling : 4:2:0
Bit depth : 8 bits
Scan type : Progressive
Bits/(Pixel*Frame) : 0.157
Stream size : 1.63 GiB (89%)
Writing library : x264 core 144 r2533 c8a773e
Encoding settings : cabac=1 / ref=4 / deblock=1:0:0 / analyse=0x3:0x113 / me=umh / subme=8 / psy=1 / psy_rd=1.00:0.00 / mixed_ref=1 / me_range=24 / chroma_me=1 / trellis=1 / 8x8dct=1 / cqm=0 / deadzone=21,11 / fast_pskip=1 / chroma_qp_offset=-2 / threads=3 / lookahead_threads=1 / sliced_threads=0 / nr=0 / decimate=1 / interlaced=0 / bluray_compat=0 / constrained_intra=0 / bframes=3 / b_pyramid=0 / b_adapt=2 / b_bias=0 / direct=3 / weightb=1 / open_gop=0 / weightp=2 / keyint=250 / keyint_min=25 / scenecut=40 / intra_refresh=0 / rc_lookahead=40 / rc=abr / mbtree=1 / bitrate=2600 / ratetol=1.0 / qcomp=0.60 / qpmin=10 / qpmax=51 / qpstep=4 / ip_ratio=1.41 / aq=1:1.00
Language : English
Default : Yes
Forced : No

Audio
ID : 2
Format : AC-3
Format/Info : Audio Coding 3
Format settings, Endianness : Big
Codec ID : A_AC3
Duration : 1 h 32 min
Bit rate mode : Constant
Bit rate : 256 kb/s
Channel(s) : 1 channel
Channel positions : Front: C
Sampling rate : 48.0 kHz
Frame rate : 31.250 FPS (1536 SPF)
Bit depth : 16 bits
Compression mode : Lossy
Delay relative to video : -5 ms
Stream size : 169 MiB (9%)
Language : Turkish
Service kind : Complete Main
Default : Yes
Forced : No

Text
ID : 3
Format : PGS
Muxing mode : zlib
Codec ID : S_HDMV/PGS
Codec ID/Info : Picture based subtitle format used on BDs/HD-DVDs
Language : English
Default : Yes
Forced : No




Screenshots (click to enlarge to original size):

Susuz yaz / Dry Summer (1963)

Susuz yaz / Dry Summer (1963)

Susuz yaz / Dry Summer (1963)


Susuz yaz / Dry Summer (1963)




–––––––––––––––––––––––––––––––––––––––-
>>> "Martin Scorsese’s World Cinema Project" <<< OR >>> "Criterion Collection" <<<
–––––––––––––––––––––––––––––––––––––––-
>>> Visit Blog RSU75 Here <<<
–––––––––––––––––––––––––––––––––––––––-