Paris Pick-Up / Le monte-charge (1962)

Posted By: RSU75
1080p (FullHD) / BDRip IMDb
Paris Pick-Up / Le monte-charge (1962)

Paris Pick-Up / Le monte-charge (1962)
BDRip 1080p | MKV | AVC 1792x1080, ~ 4.1 Mbps | 1hr 26mn | 2.90 GB | French (Français): DTS, 2 ch, 768 kbps
BDRip 720p | MKV | AVC 1192x720, ~ 2.9 Mbps | 1hr 26mn | 2.00 GB | French (Français): AC3, 2 ch, 448 kbps
Subtitles: English, French
Genre: Drama, Thriller
IMDB Rating: 7.2/10 (123 votes)


Director: Marcel Bluwal
Writer: Marcel Bluwal, Frédéric Dard
Stars: Robert Hossein, Lea Massari, Robert Dalban

On a Christmas night, an ex-convict ,Robert Herbin, meets a beautiful Italian married woman Marthe Drévet ,who has got a lot of things to hide . She lives in an old house ,the first floor of which is a big workshop where a service elevator leads to the apartment.Marthe takes Robert to her home for a drink;he puts a small bird he bought on the Xmas tree,and they go for a stroll in the streets;when they come back,there's a dead body in the room(the husband) and most extraordinary thing,the bird has disappeared.

Extras:
- None




General
Unique ID : 200660641418137665079349597445682306953 (0x96F5D573B3928CB6AA8E8DE67AC31F89)
Complete name : F:\LeMonteCharge.62.1p\LeMonteCharge.62.1p.mkv
Format : Matroska
Format version : Version 4 / Version 2
File size : 2.90 GiB
Duration : 1 h 26 min
Overall bit rate : 4 803 kb/s
Movie name : Release RSU75
Encoded date : UTC 2019-01-13 03:59:31
Writing application : mkvmerge v6.6.0 ('The Edge Of The In Between') built on Dec 1 2013 17:55:00
Writing library : libebml v1.3.0 + libmatroska v1.4.1

Video
ID : 1
Format : AVC
Format/Info : Advanced Video Codec
Format profile : High@L4.1
Format settings : CABAC / 4 Ref Frames
Format settings, CABAC : Yes
Format settings, ReFrames : 4 frames
Codec ID : V_MPEG4/ISO/AVC
Duration : 1 h 26 min
Bit rate : 4 100 kb/s
Width : 1 792 pixels
Height : 1 080 pixels
Display aspect ratio : 5:3
Frame rate mode : Constant
Frame rate : 24.000 FPS
Color space : YUV
Chroma subsampling : 4:2:0
Bit depth : 8 bits
Scan type : Progressive
Bits/(Pixel*Frame) : 0.088
Stream size : 2.38 GiB (82%)
Writing library : x264 core 148 r2643 5c65704
Encoding settings : cabac=1 / ref=4 / deblock=1:0:0 / analyse=0x3:0x113 / me=umh / subme=8 / psy=1 / psy_rd=1.00:0.00 / mixed_ref=1 / me_range=24 / chroma_me=1 / trellis=1 / 8x8dct=1 / cqm=0 / deadzone=21,11 / fast_pskip=1 / chroma_qp_offset=-2 / threads=3 / lookahead_threads=1 / sliced_threads=0 / nr=0 / decimate=1 / interlaced=0 / bluray_compat=0 / constrained_intra=0 / bframes=3 / b_pyramid=0 / b_adapt=2 / b_bias=0 / direct=3 / weightb=1 / open_gop=0 / weightp=2 / keyint=250 / keyint_min=25 / scenecut=40 / intra_refresh=0 / rc_lookahead=40 / rc=abr / mbtree=1 / bitrate=4100 / ratetol=1.0 / qcomp=0.60 / qpmin=10 / qpmax=51 / qpstep=4 / ip_ratio=1.41 / aq=1:1.00
Language : English
Default : Yes
Forced : No

Audio
ID : 2
Format : DTS
Format/Info : Digital Theater Systems
Codec ID : A_DTS
Duration : 1 h 26 min
Bit rate mode : Constant
Bit rate : 768 kb/s
Channel(s) : 2 channels
Channel layout : L R
Sampling rate : 48.0 kHz
Frame rate : 93.750 FPS (512 SPF)
Bit depth : 24 bits
Compression mode : Lossy
Stream size : 475 MiB (16%)
Language : French
Default : Yes
Forced : No

Text #1
ID : 3
Format : PGS
Muxing mode : zlib
Codec ID : S_HDMV/PGS
Codec ID/Info : Picture based subtitle format used on BDs/HD-DVDs
Language : English
Default : Yes
Forced : No

Text #2
ID : 4
Format : PGS
Muxing mode : zlib
Codec ID : S_HDMV/PGS
Codec ID/Info : Picture based subtitle format used on BDs/HD-DVDs
Language : French
Default : No
Forced : No

Menu
00:00:00.000 : en:Chapter 01
00:06:31.000 : en:Chapter 02
00:13:43.375 : en:Chapter 03
00:22:57.916 : en:Chapter 04
00:27:27.208 : en:Chapter 05
00:35:16.750 : en:Chapter 06
00:40:08.500 : en:Chapter 07
00:46:53.666 : en:Chapter 08
00:55:21.458 : en:Chapter 09
01:05:11.583 : en:Chapter 10
01:13:15.000 : en:Chapter 11
01:19:33.666 : en:Chapter 12





General
Unique ID : 191447689354872925242141526350297033813 (0x90077BD86E698ABFB095BBC25877EC55)
Complete name : F:\LeMonteCharge.62.7p\LeMonteCharge.62.7p.mkv
Format : Matroska
Format version : Version 4 / Version 2
File size : 2.00 GiB
Duration : 1 h 26 min
Overall bit rate : 3 306 kb/s
Movie name : Release RSU75
Encoded date : UTC 2019-04-15 04:06:06
Writing application : mkvmerge v6.6.0 ('The Edge Of The In Between') built on Dec 1 2013 17:55:00
Writing library : libebml v1.3.0 + libmatroska v1.4.1

Video
ID : 1
Format : AVC
Format/Info : Advanced Video Codec
Format profile : High@L4.1
Format settings : CABAC / 4 Ref Frames
Format settings, CABAC : Yes
Format settings, ReFrames : 4 frames
Codec ID : V_MPEG4/ISO/AVC
Duration : 1 h 26 min
Bit rate : 2 900 kb/s
Width : 1 192 pixels
Height : 720 pixels
Display aspect ratio : 5:3
Frame rate mode : Constant
Frame rate : 24.000 FPS
Color space : YUV
Chroma subsampling : 4:2:0
Bit depth : 8 bits
Scan type : Progressive
Bits/(Pixel*Frame) : 0.141
Stream size : 1.69 GiB (84%)
Writing library : x264 core 148 r2643 5c65704
Encoding settings : cabac=1 / ref=4 / deblock=1:0:0 / analyse=0x3:0x113 / me=umh / subme=8 / psy=1 / psy_rd=1.00:0.00 / mixed_ref=1 / me_range=24 / chroma_me=1 / trellis=1 / 8x8dct=1 / cqm=0 / deadzone=21,11 / fast_pskip=1 / chroma_qp_offset=-2 / threads=3 / lookahead_threads=1 / sliced_threads=0 / nr=0 / decimate=1 / interlaced=0 / bluray_compat=0 / constrained_intra=0 / bframes=3 / b_pyramid=0 / b_adapt=2 / b_bias=0 / direct=3 / weightb=1 / open_gop=0 / weightp=2 / keyint=250 / keyint_min=25 / scenecut=40 / intra_refresh=0 / rc_lookahead=40 / rc=abr / mbtree=1 / bitrate=2900 / ratetol=1.0 / qcomp=0.60 / qpmin=10 / qpmax=51 / qpstep=4 / ip_ratio=1.41 / aq=1:1.00
Language : English
Default : Yes
Forced : No

Audio
ID : 2
Format : AC-3
Format/Info : Audio Coding 3
Commercial name : Dolby Digital
Codec ID : A_AC3
Duration : 1 h 26 min
Bit rate mode : Constant
Bit rate : 448 kb/s
Channel(s) : 2 channels
Channel layout : L R
Sampling rate : 48.0 kHz
Frame rate : 31.250 FPS (1536 SPF)
Bit depth : 16 bits
Compression mode : Lossy
Stream size : 277 MiB (14%)
Language : French
Service kind : Complete Main
Default : Yes
Forced : No

Text #1
ID : 3
Format : PGS
Muxing mode : zlib
Codec ID : S_HDMV/PGS
Codec ID/Info : Picture based subtitle format used on BDs/HD-DVDs
Language : English
Default : Yes
Forced : No

Text #2
ID : 4
Format : PGS
Muxing mode : zlib
Codec ID : S_HDMV/PGS
Codec ID/Info : Picture based subtitle format used on BDs/HD-DVDs
Language : French
Default : No
Forced : No

Menu
00:00:00.000 : en:Chapter 01
00:06:31.000 : en:Chapter 02
00:13:43.375 : en:Chapter 03
00:22:57.916 : en:Chapter 04
00:27:27.208 : en:Chapter 05
00:35:16.750 : en:Chapter 06
00:40:08.500 : en:Chapter 07
00:46:53.666 : en:Chapter 08
00:55:21.458 : en:Chapter 09
01:05:11.583 : en:Chapter 10
01:13:15.000 : en:Chapter 11
01:19:33.666 : en:Chapter 12




Screenshots 1080p (click to enlarge to original size):

Paris Pick-Up / Le monte-charge (1962)

Paris Pick-Up / Le monte-charge (1962)

Paris Pick-Up / Le monte-charge (1962)


Paris Pick-Up / Le monte-charge (1962)



Screenshots 720p (click to enlarge to original size):

Paris Pick-Up / Le monte-charge (1962)




–––––––––––––––––––––––––––––––––––––––-
>>> "Thriller" <<< OR >>> "BDRip" <<< OR >>> "French" <<<
–––––––––––––––––––––––––––––––––––––––-
>>> Visit Blog RSU75 Here <<<
–––––––––––––––––––––––––––––––––––––––-