Kill Switch (2017)

Posted By: Tavaz
SD / WEB-DL IMDb
Kill Switch (2017)

Kill Switch (2017)
WEB-DL | MKV | 720x302 | German / English | H264 @ 752 kbps | AC-3 @ 192 kbps | 1 h 32 min | 936 MiB
Subtitles: German
Genre: Action, Sci-Fi, Thriller

Eigentlich hätte es ein Triumph der Menschheit werden sollen: Ein groß angelegter Versuch wurde gestartet, der die Energieversorgung der Welt mit Hilfe von Paralleluniversen auf Dauer sichern würde. Doch etwas läuft überhaupt nicht so wie geplant und plötzlich steht die Erde kurz vor der Auslöschung. Gejagt von Dronen und Soldaten muss der Pilot und Physiker Will Porter nun versuchen, seinen Planeten vor der Implosion zu bewahren, was nur möglich ist, wenn er einen ganz bestimmten Verteilerkasten, die sogenannte Redivider Box, aus einem Turm herausholt. Nur wenn ihm das gelingt, wird auch seine Familie die nahende Katastrophe überleben.



bxd-kills-bdrip.mkv (935.6 MB)



General
Unique ID : 179103603600704639372962861188292409785 (0x86BE196DD6358445ACC75F5166DDF9B9)
Complete name : ./Kill.Switch.2017.German.AC3D.DL.BDRiP.x264-BluRxD/bxd-kills-bdrip.mkv
Format : Matroska
Format version : Version 2
File size : 936 MiB
Duration : 1 h 32 min
Overall bit rate : 1 421 kb/s
Encoded date : UTC 2017-08-12 06:59:58
Writing application : mkvmerge v4.5.0 ('Speed of Light') gebaut am Feb 1 2011 02:10:32
Writing library : libebml v1.2.0 + libmatroska v1.1.0

Video
ID : 1
Format : AVC
Format/Info : Advanced Video Codec
Format profile : High@L3.1
Format settings : CABAC / 5 Ref Frames
Format settings, CABAC : Yes
Format settings, RefFrames : 5 frames
Codec ID : V_MPEG4/ISO/AVC
Duration : 1 h 32 min
Bit rate : 752 kb/s
Width : 720 pixels
Height : 302 pixels
Display aspect ratio : 2.40:1
Frame rate mode : Constant
Frame rate : 23.976 (24000/1001) FPS
Color space : YUV
Chroma subsampling : 4:2:0
Bit depth : 8 bits
Scan type : Progressive
Bits/(Pixel*Frame) : 0.144
Stream size : 496 MiB (53%)
Writing library : x264 core 152 r2851 ba24899
Encoding settings : cabac=1 / ref=5 / deblock=1:0:0 / analyse=0x3:0x113 / me=hex / subme=8 / psy=1 / psy_rd=1.00:0.00 / mixed_ref=1 / me_range=16 / chroma_me=1 / trellis=2 / 8x8dct=1 / cqm=0 / deadzone=21,11 / fast_pskip=1 / chroma_qp_offset=-2 / threads=9 / lookahead_threads=1 / sliced_threads=0 / nr=0 / decimate=1 / interlaced=0 / bluray_compat=0 / constrained_intra=0 / bframes=3 / b_pyramid=2 / b_adapt=1 / b_bias=0 / direct=3 / weightb=1 / open_gop=0 / weightp=2 / keyint=250 / keyint_min=23 / scenecut=40 / intra_refresh=0 / rc_lookahead=50 / rc=crf / mbtree=1 / crf=19.0 / qcomp=0.60 / qpmin=0 / qpmax=69 / qpstep=4 / ip_ratio=1.40 / aq=1:1.00
Language : English
Default : Yes
Forced : No
Color range : Limited
Matrix coefficients : BT.709

Audio #1
ID : 2
Format : AC-3
Format/Info : Audio Coding 3
Format settings, Endianness : Big
Codec ID : A_AC3
Duration : 1 h 32 min
Bit rate mode : Constant
Bit rate : 192 kb/s
Channel(s) : 2 channels
Channel positions : Front: L R
Sampling rate : 48.0 kHz
Frame rate : 31.250 FPS (1536 SPF)
Bit depth : 16 bits
Compression mode : Lossy
Delay relative to video : 39 s 0 ms
Stream size : 126 MiB (14%)
Title : German
Language : German
Service kind : Complete Main
Default : No
Forced : No

Audio #2
ID : 3
Format : AC-3
Format/Info : Audio Coding 3
Format settings, Endianness : Big
Codec ID : A_AC3
Duration : 1 h 32 min
Bit rate mode : Constant
Bit rate : 448 kb/s
Channel(s) : 6 channels
Channel positions : Front: L C R, Side: L R, LFE
Sampling rate : 48.0 kHz
Frame rate : 31.250 FPS (1536 SPF)
Bit depth : 16 bits
Compression mode : Lossy
Stream size : 295 MiB (32%)
Title : English
Language : English
Service kind : Complete Main
Default : No
Forced : No

Text #1
ID : 4
Format : UTF-8
Codec ID : S_TEXT/UTF8
Codec ID/Info : UTF-8 Plain Text
Title : German forced
Language : German
Default : Yes
Forced : Yes

Text #2
ID : 5
Format : UTF-8
Codec ID : S_TEXT/UTF8
Codec ID/Info : UTF-8 Plain Text
Title : German complete
Language : German
Default : No
Forced : No

Menu
00:00:00.000 : en:1
00:07:01.004 : en:2
00:14:02.008 : en:3
00:21:04.012 : en:4
00:28:05.015 : en:5
00:35:06.978 : en:6
00:42:07.981 : en:7
00:49:09.986 : en:8
00:56:10.989 : en:9
01:03:12.994 : en:10
01:10:13.998 : en:11
01:17:16.003 : en:12





Kill Switch (2017)


Kill Switch (2017)


Kill Switch (2017)


Kill Switch (2017)


Kill Switch (2017)