Please register here if you want to download anything!

If domain in your address bar is different from the list below
PLEASE LEAVE THAT SITE IMMEDIATELY
❗IT'S A DANGEROUS FAKE❗



Spicy Magazines for Men! ;-)

ITV - Sewer Men (2019)

Posted By: notbanned
720p (HD) / HDTV IMDb
ITV - Sewer Men (2019)

ITV - Sewer Men (2019)
HDTV | 1280x720 | .MKV/AVC @ 2999 Kbps | 1 h 31 min | 2.01 GiB
Audio: English AAC 128 kbps, 2 channels | Subs: English
Genre: Documentary

The sewer workers at West Midlands water company Severn Trent have an unenviable task on their hands. This documentary follows them as they unblock thousands of toilets and drains and delve down sewers clogged with all sorts of waste. It's a dirty job but someone has to do it - and as it turns out, these sewage shovellers just love their work. Along the way, they lift the lid on Birmingham's toilet habits, while Severn Trent's chief executive goes into emergency mode to keep the taps flowing and sort out water leaks during the driest summer in decades. Pete and Shawn unblock the sewage well at one of the dirtiest, deepest pumping stations in Staffordshire, before dealing with a blockage outside a prison. John and Jason delve into a blockage in the sludge pump after a storm, and company boss Liv Garfield reveals how talking about her job can kick up something of a stink around the dinner table.

General
Unique ID : 189692282658392041080279262137539911285 (0x8EB5679CFB3ECC28B84612918A285E75)
Complete name : ITV.Sewer.Men.720p.mkv
Format : Matroska
Format version : Version 4 / Version 2
File size : 2.01 GiB
Duration : 1 h 31 min
Overall bit rate : 3 130 kb/s

Video
ID : 1
Format : AVC
Format/Info : Advanced Video Codec
Format profile : High@L3.1
Format settings, CABAC : Yes
Format settings, ReFrames : 4 frames
Codec ID : V_MPEG4/ISO/AVC
Duration : 1 h 31 min
Bit rate : 2 999 kb/s
Width : 1 280 pixels
Height : 720 pixels
Display aspect ratio : 16:9
Frame rate mode : Constant
Frame rate : 25.000 FPS
Color space : YUV
Chroma subsampling : 4:2:0
Bit depth : 8 bits
Scan type : Progressive
Bits/(Pixel*Frame) : 0.130
Stream size : 1.93 GiB (96%)
Writing library : x264 core 158 r2984 3759fcb
Encoding settings : cabac=1 / ref=4 / deblock=1:0:0 / analyse=0x3:0x113 / me=umh / subme=9 / psy=1 / psy_rd=1.00:0.00 / mixed_ref=1 / me_range=24 / chroma_me=1 / trellis=1 / 8x8dct=1 / cqm=0 / deadzone=21,11 / fast_pskip=0 / chroma_qp_offset=-2 / threads=18 / lookahead_threads=2 / sliced_threads=0 / nr=0 / decimate=1 / interlaced=0 / bluray_compat=0 / constrained_intra=0 / bframes=6 / b_pyramid=2 / b_adapt=2 / b_bias=0 / direct=1 / weightb=1 / open_gop=0 / weightp=2 / keyint=250 / keyint_min=25 / scenecut=40 / intra_refresh=0 / rc_lookahead=40 / rc=crf / mbtree=1 / crf=20.0 / qcomp=0.60 / qpmin=0 / qpmax=69 / qpstep=4 / ip_ratio=1.40 / aq=1:1.00
Language : English
Default : Yes
Forced : No
Color range : Limited
Color primaries : BT.709
Transfer characteristics : BT.709
Matrix coefficients : BT.709

Audio
ID : 2
Format : AAC
Format/Info : Advanced Audio Codec
Format profile : LC
Codec ID : A_AAC
Duration : 1 h 31 min
Bit rate : 128 kb/s
Channel(s) : 2 channels
Channel positions : Front: L R
Sampling rate : 48.0 kHz
Frame rate : 46.875 FPS (1024 spf)
Compression mode : Lossy
Delay relative to video : 9 ms
Stream size : 84.3 MiB (4%)
Language : English
Default : Yes
Forced : No

Text
ID : 3
Format : UTF-8
Codec ID : S_TEXT/UTF8
Codec ID/Info : UTF-8 Plain Text
Duration : 1 h 31 min
Bit rate : 100 b/s
Count of elements : 1656
Stream size : 67.6 KiB (0%)
Language : English
Default : No
Forced : No


Screenshots:

ITV - Sewer Men (2019)

ITV - Sewer Men (2019)

ITV - Sewer Men (2019)

ITV - Sewer Men (2019)