Please register here if you want to download anything!

If domain in your address bar is different from the list below
PLEASE LEAVE THAT SITE IMMEDIATELY
❗IT'S A DANGEROUS FAKE❗



Spicy Magazines for Men! ;-)

Smithsonian Ch. - Humongous Moves: Series 1 (2013)

Posted By: notbanned
720p (HD) / HDTV
Smithsonian Ch. - Humongous Moves: Series 1 (2013)

Smithsonian Ch. - Humongous Moves: Series 1 (2013)
HDTV | 1280x720 | .MP4/AVC @ 3200 Kbps | 6x~44min | 6.28 GiB
Audio: English AAC 160 kbps, 2 channels | Subs: None
Genre: Documentary

Across land, sea, and air, they carry the most massive, fragile, and expensive cargoes on the planet to destinations hundreds, even thousands, of miles away. Follow the teams of engineers tasked with planning and executing the world's most nail-biting moves. Through each daring and dangerous relocation and amidst tough conditions and tight deadlines, these heavy haulers must overcome incredible challenges to get their colossal cargoes to their new homes.

Part 1: Supersized Submarine
The Royal Naval docks of Halifax are cluttered with decommissioned Oberon-class submarines. Once a vital weapon of the Cold War, these O-boats are heading for the scrapyard, all except the HMCS Onondaga, which is destined for a museum 700 miles away, if it can ever get there. Follow a daring team of marine engineers as they attempt to tow this 1,400-ton submarine up Canada's coast in the face of a hurricane, and then haul it over rocky shores and onto a perilously steep railway. It's a massive move, and the stress factor is just as large.

Part 2: Titanic Train Trek
The National Railway Museum in York is home to centuries of Britain's railway heritage. One of its star attractions, a historic A4 Pacific locomotive, is about to be joined by two more A4s from North America, but only if they can get there. Join a crew of British engineers as they haul these 94-tons, three-million-dollar steam locomotives, one from Green Bay and one from Montreal, across the Atlantic. For this experienced team, it will be their toughest challenge yet, requiring freight trains, cargo ships, trailers, and nerves of steel.

Part 3: Gigantic Gun
The Royal School of Artillery in England has a 200-ton problem. Its huge WWI railway howitzer needs to be hauled nearly 400 miles to the National Railway Museum in Utrecht, Holland, in less than a week, but there's no one to move it. At the 11th hour, a transport company comes to the rescue, but before they get on the road, they'll need to split the metal monster in two. Witness this humongous haul as the team battles rising tides, jammed roads, and a tight deadline to get this showpiece exhibit to Holland in time for its grand unveiling.

Part 4: Huge Helicopter
The Sikorsky S-92 is the ultimate search and rescue helicopter, a high-tech, all-weather machine. The Shetland Coastguard is eagerly awaiting the arrival of one but it's still in a Pennsylvania factory 3,500 miles away. That's too far for a chopper to fly alone, so it's going to need an escort. Enter the Antonov 124, a Cold War warrior with record-breaking cargo capabilities. Antonov is big, but so is the Sikorsky S-92, an eight-ton beast. Can a team of engineers squeeze this $30 million aircraft in and get her to the Shetlands unscathed?

Part 5: Floating Fortress
A team of engineers is on a mission to build and sail seven floating homes across the Netherlands, from a factory in Urk to a new waterborne community 70 miles away. The route, however, proves to be an obstacle course of boat traffic, unexpected swells, and low bridges, not to mention precarious cranes and narrow country roads when they reach stretches of land along the way. Will these luxury dream homes make it to their destination undamaged? Take a ride through a maze of Dutch riverbanks and waterways to find out.

Part 6: Huge Hovercraft
The Canadian Coast Guard, which protects the beachfront city of Vancouver, is in desperate need of a new breed of rescue vehicle. The solution is the AP1-88 Hovercraft, a 100-foot marine machine. The challenge is it's still being assembled in Southampton in a factory 9,000 miles away. Follow a team of engineers as they attempt to build and haul it across the Atlantic Ocean, through the Panama Canal, and up the West Coast of the U.S. and Canada without incident.

General
Complete name : Humongous.Moves.Series1.1of6.Supersized.Submarine.720p.mp4
Format : MPEG-4
Format profile : Base Media / Version 2
Codec ID : mp42 (mp42/isom/avc1)
File size : 1.04 GiB
Duration : 44 min 31 s
Overall bit rate mode : Variable
Overall bit rate : 3 356 kb/s

Video
ID : 1
Format : AVC
Format/Info : Advanced Video Codec
Format profile : High@L4.1
Format settings, CABAC : Yes
Format settings, ReFrames : 4 frames
Codec ID : avc1
Codec ID/Info : Advanced Video Coding
Duration : 44 min 31 s
Bit rate : 3 200 kb/s
Width : 1 280 pixels
Height : 720 pixels
Display aspect ratio : 16:9
Frame rate mode : Constant
Frame rate : 25.000 FPS
Color space : YUV
Chroma subsampling : 4:2:0
Bit depth : 8 bits
Scan type : Progressive
Bits/(Pixel*Frame) : 0.139
Stream size : 1 017 MiB (95%)
Encoding settings : cabac=1 / ref=1 / deblock=1:0:0 / analyse=0x3:0x113 / me=hex / subme=2 / psy=1 / psy_rd=1.00:0.00 / mixed_ref=0 / me_range=16 / chroma_me=1 / trellis=0 / 8x8dct=1 / cqm=0 / deadzone=21,11 / fast_pskip=1 / chroma_qp_offset=0 / threads=6 / lookahead_threads=2 / sliced_threads=0 / nr=0 / decimate=1 / interlaced=0 / bluray_compat=0 / constrained_intra=0 / bframes=3 / b_pyramid=2 / b_adapt=1 / b_bias=0 / direct=1 / weightb=1 / open_gop=0 / weightp=1 / keyint=250 / keyint_min=25 / scenecut=40 / intra_refresh=0 / rc_lookahead=10 / rc=abr / mbtree=1 / bitrate=3200 / ratetol=1.0 / qcomp=0.60 / qpmin=0 / qpmax=69 / qpstep=4 / vbv_maxrate=62500 / vbv_bufsize=78125 / nal_hrd=none / ip_ratio=1.40 / aq=1:1.00
Encoded date : UTC 2019-02-06 00:54:54
Tagged date : UTC 2019-02-06 01:35:18
Color range : Limited
Color primaries : BT.709
Transfer characteristics : BT.709
Matrix coefficients : BT.709

Audio
ID : 2
Format : AAC
Format/Info : Advanced Audio Codec
Format profile : LC
Codec ID : 40
Duration : 44 min 31 s
Bit rate mode : Variable
Bit rate : 160 kb/s
Maximum bit rate : 201 kb/s
Channel(s) : 2 channels
Channel positions : Front: L R
Sampling rate : 48.0 kHz
Frame rate : 46.875 FPS (1024 spf)
Compression mode : Lossy
Stream size : 50.9 MiB (5%)
Title : Stereo
Language : English
Encoded date : UTC 2019-02-06 00:54:54
Tagged date : UTC 2019-02-06 01:35:18


Screenshots:

Smithsonian Ch. - Humongous Moves: Series 1 (2013)

Smithsonian Ch. - Humongous Moves: Series 1 (2013)

Smithsonian Ch. - Humongous Moves: Series 1 (2013)

Smithsonian Ch. - Humongous Moves: Series 1 (2013)