Hope Springs Eternal (2018)

Posted By: Tavaz
720p (HD) / WEB-DL IMDb
Hope Springs Eternal (2018)

Hope Springs Eternal (2018)
WEB-DL | AVI | 1280x720 | MP4V-ES @ 3996 kbps | AC-3 @ 384 kbps | 1 h 18 min | 2.41 GiB
Genre: Comedy, Drama

A teen's cancer diagnosis makes her more popular at school, so when she goes into remission, she decides to conceal the news.

e1809bbb530441f2b687a78e377b1c76.avi (2.4 GB)



General
Complete name : ./e1809bbb530441f2b687a78e377b1c76.avi
Format : AVI
Format/Info : Audio Video Interleave
Format profile : OpenDML
File size : 2.41 GiB
Duration : 1 h 18 min
Overall bit rate : 4 392 kb/s
Movie name : Hope.Springs.Eternal.2018.720p.WEB-DL.XviD.AC3-FGT
Writing library : VirtualDub build 35491/release
Comment : Hope.Springs.Eternal.2018.720p.WEB-DL.XviD.AC3-FGT

Video
ID : 0
Format : MPEG-4 Visual
Format profile : Simple@L5
Format settings, BVOP : No
Format settings, QPel : No
Format settings, GMC : No warppoints
Format settings, Matrix : Default (H.263)
Codec ID : XVID
Codec ID/Hint : XviD
Duration : 1 h 18 min
Bit rate : 3 997 kb/s
Width : 1 280 pixels
Height : 720 pixels
Display aspect ratio : 16:9
Frame rate : 23.976 (24000/1001) FPS
Color space : YUV
Chroma subsampling : 4:2:0
Bit depth : 8 bits
Scan type : Progressive
Compression mode : Lossy
Bits/(Pixel*Frame) : 0.181
Stream size : 2.20 GiB (91%)
Writing library : Lavc58.1.100

Audio
ID : 1
Format : AC-3
Format/Info : Audio Coding 3
Format settings, Endianness : Big
Codec ID : 2000
Duration : 1 h 18 min
Bit rate mode : Constant
Bit rate : 384 kb/s
Channel(s) : 6 channels
Channel positions : Front: L C R, Side: L R, LFE
Sampling rate : 48.0 kHz
Frame rate : 31.250 FPS (1536 SPF)
Bit depth : 16 bits
Compression mode : Lossy
Stream size : 216 MiB (9%)
Alignment : Aligned on interleaves
Interleave, duration : 42 ms (1.00 video frame)
Interleave, preload duration : 512 ms
Service kind : Complete Main





Hope Springs Eternal (2018)


Hope Springs Eternal (2018)


Hope Springs Eternal (2018)


Hope Springs Eternal (2018)


Hope Springs Eternal (2018)