Free Solo (2018)

Posted By: Without
1080p (FullHD) / WEB-DL IMDb
Free Solo (2018)

Free Solo (2018)
WEB-DL | MKV | 1 h 40 min | 1.14 GB | 720x384 | AVC@1498 kb/s | English AAC@125 kb/s, 2 ch
WEB-DL 720p | MKV | 1 h 40 min | 3.68 GB | 1280x688 | AVC@4617 kb/s | English AC3@640 kb/s, 6 ch
WEB-DL 1080p | MKV | 1 h 40 min | 6.37 GB | 1920x1040 | AVC@8474 kb/s | English AC3@640 kb/s, 6 ch
WEB-DL 1080p | MKV | 1 h 40 min | 3.86 GB | 1916x1034 | AVC@5143 kb/s | English AC3@384 kb/s, 6 ch
Subs: English
Genre: Documentary

Follow Alex Honnold as he becomes the first person to ever free solo climb Yosemite's 3,000ft high El Capitan Wall. With no ropes or safety gear, he completed arguably the greatest feat in rock climbing history.

IMDB - Nominated for 1 Oscar. Another 16 wins & 42 nominations.


General
Free.Solo.2018.AMZN.WEB-DL.AAC2.0.H.264-NTG.mkv
Format : Matroska
Format version : Version 4 / Version 2
File size : 1.14 GB
Duration : 1 h 40 min
Overall bit rate : 1626 kb/s
Encoded date : UTC 2019-02-12 10:30:26
Writing application : mkvmerge v21.0.0 ('Tardigrades Will Inherit The Earth') 64-bit
Writing library : libebml v1.3.5 + libmatroska v1.4.8

Video
ID : 1
Format : AVC
Format/Info : Advanced Video Codec
Format profile : Main@L3
Format settings, CABAC : Yes
Format settings, ReFrames : 4 frames
Codec ID : V_MPEG4/ISO/AVC
Duration : 1 h 40 min
Bit rate mode : Constant
Bit rate : 1498 kb/s
Nominal bit rate : 2000 kb/s
Width : 720 pixels
Height : 384 pixels
Display aspect ratio : 1.85:1
Original display aspect ratio : 1.85:1
Frame rate mode : Constant
Frame rate : 23.976 (24000/1001) FPS
Color space : YUV
Chroma subsampling : 4:2:0
Bit depth : 8 bits
Scan type : Progressive
Bits/(Pixel*Frame) : 0.226
Stream size : 1.05 GB (92%)
Default : Yes
Forced : No
Color range : Limited
Color primaries : BT.709
Transfer characteristics : BT.709
Matrix coefficients : BT.709

Audio
ID : 2
Format : AAC
Format/Info : Advanced Audio Codec
Format profile : LC
Codec ID : A_AAC
Duration : 1 h 40 min
Bit rate : 125 kb/s
Channel(s) : 2 channels
Channel positions : Front: L R
Sampling rate : 48.0 kHz
Frame rate : 46.875 FPS (1024 spf)
Compression mode : Lossy
Stream size : 89.8 MB (8%)
Language : English
Default : Yes
Forced : No

Text
ID : 3
Format : UTF-8
Codec ID : S_TEXT/UTF8
Codec ID/Info : UTF-8 Plain Text
Duration : 1 h 39 min
Bit rate : 87 b/s
Count of elements : 1366
Stream size : 63.8 KiB (0%)
Title : SDH
Language : English
Default : No
Forced : No


General
Free.Solo.2018.720p.AMZN.WEB-DL.DDP5.1.H.264-NTG.mkv
Format : Matroska
Format version : Version 4 / Version 2
File size : 3.68 GB
Duration : 1 h 40 min
Overall bit rate : 5259 kb/s
Encoded date : UTC 2019-02-12 10:28:52
Writing application : mkvmerge v21.0.0 ('Tardigrades Will Inherit The Earth') 64-bit
Writing library : libebml v1.3.5 + libmatroska v1.4.8

Video
ID : 1
Format : AVC
Format/Info : Advanced Video Codec
Format profile : High@L3.1
Format settings, CABAC : Yes
Format settings, ReFrames : 4 frames
Codec ID : V_MPEG4/ISO/AVC
Duration : 1 h 40 min
Bit rate mode : Constant
Bit rate : 4617 kb/s
Nominal bit rate : 6000 kb/s
Width : 1280 pixels
Height : 688 pixels
Display aspect ratio : 1.85:1
Frame rate mode : Constant
Frame rate : 23.976 (24000/1001) FPS
Color space : YUV
Chroma subsampling : 4:2:0
Bit depth : 8 bits
Scan type : Progressive
Bits/(Pixel*Frame) : 0.219
Stream size : 3.23 GB (88%)
Default : Yes
Forced : No
Color range : Limited
Color primaries : BT.709
Transfer characteristics : BT.709
Matrix coefficients : BT.709

Audio
ID : 2
Format : E-AC-3
Format/Info : Enhanced Audio Coding 3
Format settings, Endianness : Big
Codec ID : A_EAC3
Duration : 1 h 40 min
Bit rate mode : Constant
Bit rate : 640 kb/s
Channel(s) : 6 channels
Channel positions : Front: L C R, Side: L R, LFE
Sampling rate : 48.0 kHz
Frame rate : 187.500 FPS (256 spf)
Compression mode : Lossy
Stream size : 458 MB (12%)
Language : English
Default : Yes
Forced : No

Text
ID : 3
Format : UTF-8
Codec ID : S_TEXT/UTF8
Codec ID/Info : UTF-8 Plain Text
Duration : 1 h 39 min
Bit rate : 87 b/s
Count of elements : 1366
Stream size : 63.8 KiB (0%)
Title : SDH
Language : English
Default : No
Forced : No


General
Free.Solo.2018.1080p.AMZN.WEB-DL.DDP5.1.H.264-NTG.mkv
Format : Matroska
Format version : Version 4 / Version 2
File size : 6.37 GB
Duration : 1 h 40 min
Overall bit rate : 9116 kb/s
Encoded date : UTC 2019-02-12 10:22:30
Writing application : mkvmerge v21.0.0 ('Tardigrades Will Inherit The Earth') 64-bit
Writing library : libebml v1.3.5 + libmatroska v1.4.8

Video
ID : 1
Format : AVC
Format/Info : Advanced Video Codec
Format profile : High@L4
Format settings, CABAC : Yes
Format settings, ReFrames : 4 frames
Codec ID : V_MPEG4/ISO/AVC
Duration : 1 h 40 min
Bit rate mode : Constant
Bit rate : 8474 kb/s
Nominal bit rate : 10000 kb/s
Width : 1920 pixels
Height : 1040 pixels
Display aspect ratio : 1.85:1
Frame rate mode : Constant
Frame rate : 23.976 (24000/1001) FPS
Color space : YUV
Chroma subsampling : 4:2:0
Bit depth : 8 bits
Scan type : Progressive
Bits/(Pixel*Frame) : 0.177
Stream size : 5.92 GB (93%)
Default : Yes
Forced : No
Color range : Limited
Color primaries : BT.709
Transfer characteristics : BT.709
Matrix coefficients : BT.709

Audio
ID : 2
Format : E-AC-3
Format/Info : Enhanced Audio Coding 3
Format settings, Endianness : Big
Codec ID : A_EAC3
Duration : 1 h 40 min
Bit rate mode : Constant
Bit rate : 640 kb/s
Channel(s) : 6 channels
Channel positions : Front: L C R, Side: L R, LFE
Sampling rate : 48.0 kHz
Frame rate : 187.500 FPS (256 spf)
Compression mode : Lossy
Stream size : 458 MB (7%)
Language : English
Default : Yes
Forced : No

Text
ID : 3
Format : UTF-8
Codec ID : S_TEXT/UTF8
Codec ID/Info : UTF-8 Plain Text
Duration : 1 h 39 min
Bit rate : 87 b/s
Count of elements : 1366
Stream size : 63.8 KiB (0%)
Title : SDH
Language : English
Default : No
Forced : No


General
Free Solo 2018 1080p WEB-DL X264 AC3.mkv
Format : Matroska
Format version : Version 4 / Version 2
File size : 3.86 GB
Duration : 1 h 40 min
Overall bit rate : 5528 kb/s
Encoded date : UTC 2019-02-12 06:09:29
Writing application : mkvmerge v30.1.0 ('Forever And More') 64-bit
Writing library : libebml v1.3.6 + libmatroska v1.4.9

Video
ID : 2
Format : AVC
Format/Info : Advanced Video Codec
Format profile : High@L4
Format settings, CABAC : Yes
Format settings, ReFrames : 4 frames
Codec ID : V_MPEG4/ISO/AVC
Duration : 1 h 40 min
Bit rate : 5143 kb/s
Width : 1916 pixels
Height : 1034 pixels
Display aspect ratio : 1.85:1
Frame rate mode : Constant
Frame rate : 23.976 FPS
Color space : YUV
Chroma subsampling : 4:2:0
Bit depth : 8 bits
Scan type : Progressive
Bits/(Pixel*Frame) : 0.108
Stream size : 3.59 GB (93%)
Language : English
Default : Yes
Forced : No
Color range : Limited
Color primaries : BT.709
Transfer characteristics : BT.709
Matrix coefficients : BT.709

Audio
ID : 1
Format : AC-3
Format/Info : Audio Coding 3
Mode extension : CM (complete main)
Format settings, Endianness : Big
Codec ID : A_AC3
Duration : 1 h 40 min
Bit rate mode : Constant
Bit rate : 384 kb/s
Channel(s) : 6 channels
Channel positions : Front: L C R, Side: L R, LFE
Sampling rate : 48.0 kHz
Frame rate : 31.250 FPS (1536 spf)
Bit depth : 16 bits
Compression mode : Lossy
Delay relative to video : -42 ms
Stream size : 275 MB (7%)
Language : English
Default : Yes
Forced : No



WEB-DL Screenshots

Free Solo (2018)

Free Solo (2018)

Free Solo (2018)

Free Solo (2018)


WEB-DL 720p Screenshots

Free Solo (2018)

Free Solo (2018)

Free Solo (2018)

Free Solo (2018)


WEB-DL 1080p Screenshots

Free Solo (2018)

Free Solo (2018)

Free Solo (2018)

Free Solo (2018)


WEB-DL 1080p Screenshots

Free Solo (2018)

Free Solo (2018)

Free Solo (2018)

Free Solo (2018)


Come Visit My Blog (•‿•)