Tags
Language
Tags

Final Destination 5 (2011)

Posted By: Tavaz
1080p (FullHD) / BDRip IMDb
Final Destination 5 (2011)

Final Destination 5 (2011)
BDRip | MOV | 1920x800 | English | H264 @ 4250 kbps | AC-3 @ 448 kbps | 1 h 31 min | 3.02 GiB
Subtitles: English
Genre: Horror, Mystery

In this fifth installment, Death is just as omnipresent as ever, and is unleashed after one man’s premonition saves a group of coworkers from a terrifying suspension bridge collapse. But this group of unsuspecting souls was never supposed to survive, and, in a terrifying race against time, the ill-fated group frantically tries to discover a way to escape Death’s sinister agenda.

e89efb68804021d886847e99d550682c.mp4 (3.0 GB)



General
Complete name : ./e89efb68804021d886847e99d550682c.mp4
Format : MPEG-4
Format profile : Base Media / Version 2
Codec ID : mp42 (mp42/isom/avc1)
File size : 3.02 GiB
Duration : 1 h 31 min
Overall bit rate mode : Variable
Overall bit rate : 4 707 kb/s
Movie name : Final.Destination.5.2011.1080p.BluRay.H264.AC3.DD5.1
Encoded date : UTC 2020-05-13 10:49:24
Tagged date : UTC 2020-05-13 10:57:06
Writing application : DVDFab 11.0.4.2
Cover : Yes

Video
ID : 1
Format : AVC
Format/Info : Advanced Video Codec
Format profile : Main@L4
Format settings : CABAC / 2 Ref Frames
Format settings, CABAC : Yes
Format settings, RefFrames : 2 frames
Format settings, GOP : M=1, N=24
Codec ID : avc1
Codec ID/Info : Advanced Video Coding
Duration : 1 h 31 min
Bit rate mode : Variable
Bit rate : 4 251 kb/s
Maximum bit rate : 6 463 kb/s
Width : 1 920 pixels
Height : 800 pixels
Display aspect ratio : 2.40:1
Frame rate mode : Constant
Frame rate : 23.976 (24000/1001) FPS
Color space : YUV
Chroma subsampling : 4:2:0
Bit depth : 8 bits
Scan type : Progressive
Bits/(Pixel*Frame) : 0.115
Stream size : 2.73 GiB (90%)
Encoded date : UTC 2020-05-13 10:49:24
Tagged date : UTC 2020-05-13 10:57:06
Color primaries : BT.709
Transfer characteristics : BT.709
Matrix coefficients : BT.709

Audio
ID : 2
Format : AC-3
Format/Info : Audio Coding 3
Format settings, Endianness : Big
Codec ID : ac-3
Duration : 1 h 31 min
Bit rate mode : Constant
Bit rate : 448 kb/s
Channel(s) : 6 channels
Channel positions : Front: L C R, Side: L R, LFE
Sampling rate : 48.0 kHz
Frame rate : 31.250 FPS (1536 SPF)
Bit depth : 16 bits
Compression mode : Lossy
Stream size : 294 MiB (10%)
Title : English (ac3 5.1)
Language : English
Service kind : Complete Main
Default : Yes
Alternate group : 1
Encoded date : UTC 2020-05-13 10:49:24
Tagged date : UTC 2020-05-13 10:57:06

Text
ID : 3
Format : VobSub
Codec ID : mp4s-E0
Codec ID/Info : The same subtitle format used on DVDs
Duration : 1 h 31 min
Bit rate mode : Variable
Bit rate : 6 313 b/s
Maximum bit rate : 3 767 Mb/s
Stream size : 4.14 MiB (0%)
Language : English
Default : Yes
Forced : No
Alternate group : 2
Encoded date : UTC 2020-05-13 10:49:24
Tagged date : UTC 2020-05-13 10:57:04





Final Destination 5 (2011)


Final Destination 5 (2011)


Final Destination 5 (2011)


Final Destination 5 (2011)


Final Destination 5 (2011)