Alter Ego Films - Dreaming Under Capitalism (2018)

Posted By: Tutorial
720p (HD) / HDTV
Alter Ego Films - Dreaming Under Capitalism (2018)

Alter Ego Films - Dreaming Under Capitalism (2018)
HDTV | 1280 x 720 | .MP4/AVC @ 2918 Kbps | 1 h 2 min | 1.34 GB
Audio: French AAC 125 Kbps, 2 channels | Subs: English
Genre: Documentary

Twelve people describe their dreams and nightmares linked to their working lives.
Between poetry and social commentary their stories portray a workplace dominated by the pressures of neoliberalism.

General
Complete name : Dreaming.Under.Capitalism.mp4
Format : MPEG-4
Format profile : Base Media / Version 2
Codec ID : mp42 (isom/mp42)
File size : 1.34 GiB
Duration : 1 h 2 min
Overall bit rate mode : Variable
Overall bit rate : 3 048 kb/s
Encoded date : UTC 2018-10-01 11:27:54
Tagged date : UTC 2018-10-01 11:27:54

Video
ID : 1
Format : AVC
Format/Info : Advanced Video Codec
Format profile : Main@L3.1
Format settings, CABAC : Yes
Format settings, ReFrames : 3 frames
Format settings, GOP : M=4, N=33
Codec ID : avc1
Codec ID/Info : Advanced Video Coding
Duration : 1 h 2 min
Bit rate : 2 918 kb/s
Width : 1 280 pixels
Height : 720 pixels
Display aspect ratio : 16:9
Frame rate mode : Constant
Frame rate : 25.000 FPS
Standard : PAL
Color space : YUV
Chroma subsampling : 4:2:0
Bit depth : 8 bits
Scan type : Progressive
Bits/(Pixel*Frame) : 0.127
Stream size : 1.28 GiB (96%)
Encoded date : UTC 2018-10-01 11:27:54
Tagged date : UTC 2018-10-01 11:27:54
Color range : Limited

Audio
ID : 2
Format : AAC
Format/Info : Advanced Audio Codec
Format profile : LC
Codec ID : 40
Duration : 1 h 2 min
Bit rate mode : Variable
Bit rate : 125 kb/s
Maximum bit rate : 164 kb/s
Channel(s) : 2 channels
Channel positions : Front: L R
Sampling rate : 48.0 kHz
Frame rate : 46.875 FPS (1024 spf)
Compression mode : Lossy
Stream size : 56.3 MiB (4%)
Encoded date : UTC 2018-10-01 11:27:54
Tagged date : UTC 2018-10-01 11:27:54
Screenshots

Alter Ego Films - Dreaming Under Capitalism (2018)

Alter Ego Films - Dreaming Under Capitalism (2018)

Alter Ego Films - Dreaming Under Capitalism (2018)

Welcome to my blog - daily update!

Alter Ego Films - Dreaming Under Capitalism (2018)