Deadpool 2 (2018)

Posted By: Tavaz
1080p (FullHD) / BDRip IMDb
Deadpool 2 (2018)

Deadpool 2 (2018)
BDRip | MKV | 1920x804 | English / English | H264 @ 10282 kbps | DTS | 1 h 59 min | 13.0 GiB
Subtitles: Spanish, French, English
Genre: Action, Comedy, Science Fiction

Wisecracking mercenary Deadpool battles the evil and powerful Cable and other bad guys to save a boy's life.

Deadpool.2.2018.THEATRiCAL.iNTERNAL.1080p.BluRay.x264-SPRiNTER=73f0eb6e186b4a5b198bbc652265f655e5a44afa.part1.rar (6.8 GB)
Deadpool.2.2018.THEATRiCAL.iNTERNAL.1080p.BluRay.x264-SPRiNTER=73f0eb6e186b4a5b198bbc652265f655e5a44afa.part2.rar (6.3 GB)



General
Unique ID : 143718323941525580505660326895712776515 (0x6C1F2471F11597A8F9F51240725CB143)
Complete name : ./76b3a66cee0748f49380b81d9532a349.mkv
Format : Matroska
Format version : Version 4 / Version 2
File size : 13.0 GiB
Duration : 1 h 59 min
Overall bit rate : 15.7 Mb/s
Encoded date : UTC 2018-08-10 07:03:20
Writing application : mkvmerge v25.0.0 ('Prog Noir') 64-bit
Writing library : libebml v1.3.6 + libmatroska v1.4.9

Video
ID : 1
Format : AVC
Format/Info : Advanced Video Codec
Format profile : High@L4.1
Format settings : CABAC / 5 Ref Frames
Format settings, CABAC : Yes
Format settings, RefFrames : 5 frames
Codec ID : V_MPEG4/ISO/AVC
Duration : 1 h 59 min
Bit rate : 10.3 Mb/s
Width : 1 920 pixels
Height : 804 pixels
Display aspect ratio : 2.40:1
Frame rate mode : Constant
Frame rate : 23.976 (24000/1001) FPS
Color space : YUV
Chroma subsampling : 4:2:0
Bit depth : 8 bits
Scan type : Progressive
Bits/(Pixel*Frame) : 0.278
Stream size : 8.57 GiB (66%)
Writing library : x264 core 155 r2901 7d0ff22
Encoding settings : cabac=1 / ref=5 / deblock=1:-3:-3 / analyse=0x3:0x133 / me=umh / subme=10 / psy=1 / psy_rd=1.00:0.15 / mixed_ref=1 / me_range=24 / chroma_me=1 / trellis=2 / 8x8dct=1 / cqm=0 / deadzone=21,11 / fast_pskip=1 / chroma_qp_offset=-3 / threads=25 / lookahead_threads=4 / sliced_threads=0 / nr=0 / decimate=1 / interlaced=0 / bluray_compat=0 / constrained_intra=0 / bframes=8 / b_pyramid=2 / b_adapt=2 / b_bias=0 / direct=3 / weightb=1 / open_gop=0 / weightp=2 / keyint=240 / keyint_min=24 / scenecut=40 / intra_refresh=0 / rc_lookahead=60 / rc=crf / mbtree=1 / crf=17.0 / qcomp=0.60 / qpmin=0 / qpmax=69 / qpstep=4 / ip_ratio=1.40 / aq=1:0.80
Default : Yes
Forced : No

Audio #1
ID : 2
Format : DTS
Format/Info : Digital Theater Systems
Format profile : MA / Core
Mode : 16
Format settings, Endianness : Big
Codec ID : A_DTS
Duration : 1 h 59 min
Bit rate mode : Variable / Constant
Bit rate : 5 040 kb/s / 1 509 kb/s
Channel(s) : 8 channels / 6 channels
Channel positions : Front: L C R, Side: L R, Back: L R, LFE / Front: L C R, Side: L R, LFE
Sampling rate : 48.0 kHz
Frame rate : 93.750 FPS (512 SPF)
Bit depth : 24 bits
Compression mode : Lossless / Lossy
Stream size : 4.20 GiB (32%)
Language : English
Default : Yes
Forced : No

Audio #2
ID : 3
Format : AC-3
Format/Info : Audio Coding 3
Format settings, Endianness : Big
Codec ID : A_AC3
Duration : 1 h 59 min
Bit rate mode : Constant
Bit rate : 224 kb/s
Channel(s) : 2 channels
Channel positions : Front: L R
Sampling rate : 48.0 kHz
Frame rate : 31.250 FPS (1536 SPF)
Bit depth : 16 bits
Compression mode : Lossy
Stream size : 191 MiB (1%)
Title : Commentary with David Leitch, Ryan Reynolds, Rhett Reese, and Paul Wernick
Language : English
Service kind : Complete Main
Default : No
Forced : No

Text #1
ID : 4
Format : UTF-8
Codec ID : S_TEXT/UTF8
Codec ID/Info : UTF-8 Plain Text
Duration : 13 s 264 ms
Bit rate : 36 b/s
Count of elements : 2
Stream size : 61.0 Bytes (0%)
Title : Forced
Language : English
Default : Yes
Forced : No

Text #2
ID : 5
Format : UTF-8
Codec ID : S_TEXT/UTF8
Codec ID/Info : UTF-8 Plain Text
Duration : 1 h 51 min
Bit rate : 66 b/s
Count of elements : 1866
Stream size : 53.8 KiB (0%)
Language : English
Default : No
Forced : No

Text #3
ID : 6
Format : UTF-8
Codec ID : S_TEXT/UTF8
Codec ID/Info : UTF-8 Plain Text
Duration : 1 h 58 min
Bit rate : 70 b/s
Count of elements : 2152
Stream size : 61.1 KiB (0%)
Title : SDH
Language : English
Default : No
Forced : No

Text #4
ID : 7
Format : PGS
Muxing mode : zlib
Codec ID : S_HDMV/PGS
Codec ID/Info : Picture based subtitle format used on BDs/HD-DVDs
Duration : 13 s 263 ms
Bit rate : 18.4 kb/s
Count of elements : 4
Stream size : 29.8 KiB (0%)
Title : Forced
Language : English
Default : No
Forced : No

Text #5
ID : 8
Format : PGS
Muxing mode : zlib
Codec ID : S_HDMV/PGS
Codec ID/Info : Picture based subtitle format used on BDs/HD-DVDs
Duration : 1 h 58 min
Bit rate : 47.8 kb/s
Count of elements : 4304
Stream size : 40.4 MiB (0%)
Title : SDH
Language : English
Default : No
Forced : No

Text #6
ID : 9
Format : PGS
Muxing mode : zlib
Codec ID : S_HDMV/PGS
Codec ID/Info : Picture based subtitle format used on BDs/HD-DVDs
Duration : 1 h 56 min
Bit rate : 36.4 kb/s
Count of elements : 3146
Stream size : 30.4 MiB (0%)
Language : Spanish
Default : No
Forced : No

Text #7
ID : 10
Format : PGS
Muxing mode : zlib
Codec ID : S_HDMV/PGS
Codec ID/Info : Picture based subtitle format used on BDs/HD-DVDs
Duration : 1 h 56 min
Bit rate : 36.2 kb/s
Count of elements : 3312
Stream size : 30.3 MiB (0%)
Language : French
Default : No
Forced : No

Text #8
ID : 11
Format : PGS
Muxing mode : zlib
Codec ID : S_HDMV/PGS
Codec ID/Info : Picture based subtitle format used on BDs/HD-DVDs
Duration : 1 h 53 min
Bit rate : 77.4 kb/s
Count of elements : 5132
Stream size : 63.0 MiB (0%)
Title : Commentary
Language : English
Default : No
Forced : No

Text #9
ID : 12
Format : PGS
Muxing mode : zlib
Codec ID : S_HDMV/PGS
Codec ID/Info : Picture based subtitle format used on BDs/HD-DVDs
Duration : 1 h 59 min
Bit rate : 65.6 kb/s
Count of elements : 4764
Stream size : 55.9 MiB (0%)
Title : Commentary
Language : Spanish
Default : No
Forced : No

Text #10
ID : 13
Format : PGS
Muxing mode : zlib
Codec ID : S_HDMV/PGS
Codec ID/Info : Picture based subtitle format used on BDs/HD-DVDs
Duration : 1 h 59 min
Bit rate : 61.8 kb/s
Count of elements : 4768
Stream size : 52.6 MiB (0%)
Title : Commentary
Language : French
Default : No
Forced : No

Menu
00:00:00.000 : en:00:00:00.000
00:02:31.693 : en:00:02:31.693
00:05:53.436 : en:00:05:53.436
00:08:11.658 : en:00:08:11.658
00:11:30.565 : en:00:11:30.565
00:14:52.100 : en:00:14:52.100
00:16:20.980 : en:00:16:20.980
00:20:24.515 : en:00:20:24.515
00:22:00.528 : en:00:22:00.528
00:26:34.468 : en:00:26:34.468
00:31:40.774 : en:00:31:40.774
00:35:16.948 : en:00:35:16.948
00:39:00.380 : en:00:39:00.380
00:41:49.924 : en:00:41:49.924
00:46:16.232 : en:00:46:16.232
00:50:30.027 : en:00:50:30.027
00:53:56.066 : en:00:53:56.066
00:56:27.426 : en:00:56:27.426
00:58:25.711 : en:00:58:25.711
01:00:26.039 : en:01:00:26.039
01:03:59.294 : en:01:03:59.294
01:07:57.490 : en:01:07:57.490
01:09:38.466 : en:01:09:38.466
01:13:27.820 : en:01:13:27.820
01:17:49.123 : en:01:17:49.123
01:20:56.018 : en:01:20:56.018
01:24:05.916 : en:01:24:05.916
01:26:21.343 : en:01:26:21.343
01:29:28.905 : en:01:29:28.905
01:31:41.287 : en:01:31:41.287
01:33:26.351 : en:01:33:26.351
01:35:29.307 : en:01:35:29.307
01:38:54.554 : en:01:38:54.554
01:42:16.172 : en:01:42:16.172
01:45:19.021 : en:01:45:19.021
01:49:00.576 : en:01:49:00.576





Deadpool 2 (2018)


Deadpool 2 (2018)


Deadpool 2 (2018)


Deadpool 2 (2018)


Deadpool 2 (2018)