Tags
Language
Tags

Channel 4 - Things We Wont Say about Race: that are True (2015)

Posted By: notbanned
720p (HD) / HDTV
Channel 4 - Things We Wont Say about Race: that are True (2015)

Channel 4 - Things We Wont Say about Race: that are True (2015)
HDTV | 1280x720 | .MKV/AVC @ 1699 Kbps | 1 h 6 min | 1011 MiB
Audio: English AC3 384 kbps, 2 channels | Subs: None
Genre: Documentary

Trevor Phillips confronts some uncomfortable truths about racial stereotypes, as he asks if attempts to improve equality have led to serious unwanted negative consequences. Why shouldn't we say things about race that are true, asks Trevor Phillips in a Channel 4 documentary, an assault on our national self-censorship. And who could possibly disagree? Facts are facts, after all, and suppressing them just suppresses debate.
In this strongly-opinionated authored extended documentary, Trevor Phillips, the man at the heart of 30 years of effort to reduce discrimination and improve equality across the UK, makes the controversial argument that while much of the work of those in the 'equality movement' has changed Britain for the better, it may also have led to serious and unwanted consequences that could undermine what's been achieved. British people have become paralysed by a fear of being called racist. Phillips has opposed multiculturalism, and once said that Britain was "sleepwalking to segregation".
Some of Phillips' unsayable things are fairly mundane: "Irish people run the building trade"; "Indian women are more likely to be chemists"; "Indian and Chinese kids do best at school". So what? But his crime-related observations are more controversial. In west London there are south Asian and Somali networks, who deal drugs and operate protection rackets; in east London crime within the Pakistani community has caused "a couple of very nasty murders"; in Hackney, there's a Turkish influence to the heroin trade; and in central London there are Chinese sex traffickers and Romanian pickpockets. Also Pakistani-origin sexual grooming gangs in several British cities with thousands of young victims are covered.
During the film, Phillips confronts some uncomfortable truths about racial stereotypes; asks Nigel Farage whether the attempt to embrace a multi-ethnic Britain has led directly to the rise of UKIP; and talks to Tony Blair about how his equality and diversity project could be brought back on track.
He argues that only more openness, more sophisticated ethnic monitoring and a willingness to talk about what the data reveal, will help those most in need; and that in a diverse society we may have to get more used to giving and taking offence.

General
Unique ID : 0 (0x0)
Complete name : Ch4.Things.We.Wont.Say.About.Race.That.Are.True.720p.mkv
Format : Matroska
Format version : Version 2
File size : 1 011 MiB
Duration : 1 h 6 min
Overall bit rate : 2 125 kb/s

Video
ID : 1
Format : AVC
Format/Info : Advanced Video Codec
Format profile : High@L4.1
Format settings, CABAC : Yes
Format settings, ReFrames : 5 frames
Codec ID : V_MPEG4/ISO/AVC
Duration : 1 h 6 min
Bit rate : 1 699 kb/s
Width : 1 280 pixels
Height : 720 pixels
Display aspect ratio : 16:9
Frame rate mode : Constant
Frame rate : 25.000 FPS
Color space : YUV
Chroma subsampling : 4:2:0
Bit depth : 8 bits
Scan type : Progressive
Bits/(Pixel*Frame) : 0.074
Stream size : 808 MiB (80%)
Writing library : x264 core 144 r2525 40bb568
Encoding settings : cabac=1 / ref=5 / deblock=1:0:0 / analyse=0x3:0x113 / me=umh / subme=8 / psy=1 / psy_rd=1.00:0.00 / mixed_ref=1 / me_range=16 / chroma_me=1 / trellis=1 / 8x8dct=1 / cqm=0 / deadzone=21,11 / fast_pskip=1 / chroma_qp_offset=-2 / threads=12 / lookahead_threads=2 / sliced_threads=0 / nr=0 / decimate=1 / interlaced=0 / bluray_compat=0 / constrained_intra=0 / bframes=3 / b_pyramid=2 / b_adapt=2 / b_bias=0 / direct=3 / weightb=1 / open_gop=0 / weightp=2 / keyint=250 / keyint_min=25 / scenecut=40 / intra_refresh=0 / rc_lookahead=50 / rc=crf / mbtree=1 / crf=21.0 / qcomp=0.60 / qpmin=0 / qpmax=69 / qpstep=4 / ip_ratio=1.40 / aq=1:1.00
Default : Yes
Forced : No
Color range : Limited
Matrix coefficients : BT.709

Audio
ID : 2
Format : AC-3
Format/Info : Audio Coding 3
Format settings, Endianness : Big
Codec ID : A_AC3
Duration : 1 h 6 min
Bit rate mode : Constant
Bit rate : 384 kb/s
Channel(s) : 2 channels
Channel positions : Front: L R
Sampling rate : 48.0 kHz
Frame rate : 31.250 FPS (1536 spf)
Bit depth : 16 bits
Compression mode : Lossy
Delay relative to video : 64 ms
Stream size : 183 MiB (18%)
Language : English
Service kind : Complete Main
Default : Yes
Forced : No


Screenshots:

Channel 4 - Things We Wont Say about Race: that are True (2015)

Channel 4 - Things We Wont Say about Race: that are True (2015)

Channel 4 - Things We Wont Say about Race: that are True (2015)

Channel 4 - Things We Wont Say about Race: that are True (2015)