Caravaggio (1986)

Posted By: RSU75
1080p (FullHD) / BDRip IMDb
Caravaggio (1986)

Caravaggio (1986) [British Film Institute]
BDRip | MKV | HEVC, 1920x1040, ~ 4.0 Mbps | 1hr 32mn | 3.17 GB
English: AC3, 1 ch, 448 kbps \ AC3, 2 ch, 192 kbps \ AC3, 2 ch, 192 kbps
BDRip | MKV | HEVC, 1280x692, ~ 2.8 Mbps | 1hr 32mn | 2.27 MB
English: AC3, 1 ch, 256 kbps \ AC3, 2 ch, 192 kbps \ AC3, 2 ch, 192 kbps
Subtitles: English
Genre: Biography, Drama, History
IMDB Rating: 6.7/10 (4.597 votes)


Director: Derek Jarman
Writers: Derek Jarman
Stars: Noam Almaz, Dexter Fletcher, Nigel Terry

Film Distributor: BFI (British Film Institute)
Box set: Jarman Volume 1: 1972-1986

Fictionalized biopic of famed 17th century Italian painter Michelangelo Merisi de Caravaggio. As a young man, he gained the support of Cardinal Del Monte and Caravaggio proceeded to develop a new style of painting giving a more realistic view of the world in which he lived. He also begins love affairs with one of his models, Ranuccio as well as with Ranuccio's girlfriend Lena. Their relationship leads to murder and deceit.

Extras:
- Caravaggio Score Recording Sessions (audio only)
- Feature commentary by Gabriel Beristain



General
Unique ID : 183769631023952866750476279426620522896 (0x8A40BE57B4FD35F2BA0E625245C30190)
Complete name : F:\Caravaggio.86.BFI.HEVC.1p\Caravaggio.86.BFI.HEVC.1p.mkv
Format : Matroska
Format version : Version 4 / Version 2
File size : 3.17 GiB
Duration : 1 h 32 min
Overall bit rate : 4 883 kb/s
Movie name : Release RSU75
Encoded date : UTC 2019-03-02 03:49:42
Writing application : mkvmerge v6.6.0 ('The Edge Of The In Between') built on Dec 1 2013 17:55:00
Writing library : libebml v1.3.0 + libmatroska v1.4.1

Video
ID : 1
Format : HEVC
Format/Info : High Efficiency Video Coding
Format profile : Main@L4@Main
Codec ID : V_MPEGH/ISO/HEVC
Duration : 1 h 32 min
Bit rate : 3 954 kb/s
Width : 1 920 pixels
Height : 1 040 pixels
Display aspect ratio : 1.85:1
Frame rate mode : Constant
Frame rate : 24.000 FPS
Color space : YUV
Chroma subsampling : 4:2:0
Bit depth : 8 bits
Bits/(Pixel*Frame) : 0.083
Stream size : 2.56 GiB (81%)
Writing library : x265 1.9+5-20f14d78dbad:[Windows][GCC 5.2.0][32 bit] 8bit
Encoding settings : wpp / ctu=64 / min-cu-size=8 / max-tu-size=32 / tu-intra-depth=1 / tu-inter-depth=1 / me=1 / subme=2 / merange=57 / no-rect / no-amp / max-merge=2 / temporal-mvp / no-early-skip / rdpenalty=0 / no-tskip / no-tskip-fast / strong-intra-smoothing / no-lossless / no-cu-lossless / no-constrained-intra / no-fast-intra / open-gop / no-temporal-layers / interlace=0 / keyint=250 / min-keyint=24 / scenecut=40 / rc-lookahead=20 / lookahead-slices=6 / bframes=4 / bframe-bias=0 / b-adapt=2 / ref=3 / limit-refs=3 / no-limit-modes / weightp / no-weightb / aq-mode=1 / qg-size=32 / aq-strength=1.00 / cbqpoffs=0 / crqpoffs=0 / rd=3 / psy-rd=2.00 / rdoq-level=0 / psy-rdoq=0.00 / signhide / deblock / sao / no-sao-non-deblock / b-pyramid / cutree / no-intra-refresh / rc=abr / bitrate=4100 / qcomp=0.60 / qpmin=0 / qpmax=51 / qpstep=4 / ipratio=1.40 / pbratio=1.30
Language : English
Default : Yes
Forced : No

Audio #1
ID : 2
Format : AC-3
Format/Info : Audio Coding 3
Commercial name : Dolby Digital
Codec ID : A_AC3
Duration : 1 h 32 min
Bit rate mode : Constant
Bit rate : 448 kb/s
Channel(s) : 1 channel
Channel layout : C
Sampling rate : 48.0 kHz
Frame rate : 31.250 FPS (1536 SPF)
Bit depth : 16 bits
Compression mode : Lossy
Stream size : 298 MiB (9%)
Language : English
Service kind : Complete Main
Default : Yes
Forced : No

Audio #2
ID : 3
Format : AC-3
Format/Info : Audio Coding 3
Commercial name : Dolby Digital
Codec ID : A_AC3
Duration : 1 h 32 min
Bit rate mode : Constant
Bit rate : 192 kb/s
Channel(s) : 2 channels
Channel layout : L R
Sampling rate : 48.0 kHz
Frame rate : 31.250 FPS (1536 SPF)
Bit depth : 16 bits
Compression mode : Lossy
Stream size : 128 MiB (4%)
Title : Commentary
Language : English
Service kind : Complete Main
Default : No
Forced : No

Audio #3
ID : 4
Format : AC-3
Format/Info : Audio Coding 3
Commercial name : Dolby Digital
Codec ID : A_AC3
Duration : 1 h 32 min
Bit rate mode : Constant
Bit rate : 192 kb/s
Channel(s) : 2 channels
Channel layout : L R
Sampling rate : 48.0 kHz
Frame rate : 31.250 FPS (1536 SPF)
Bit depth : 16 bits
Compression mode : Lossy
Stream size : 128 MiB (4%)
Title : Commentary
Language : English
Service kind : Complete Main
Default : No
Forced : No

Text
ID : 5
Format : PGS
Muxing mode : zlib
Codec ID : S_HDMV/PGS
Codec ID/Info : Picture based subtitle format used on BDs/HD-DVDs
Language : English
Default : Yes
Forced : No

Menu
00:00:00.000 : en:Chapter 01
00:08:45.250 : en:Chapter 02
00:19:15.458 : en:Chapter 03
00:27:13.291 : en:Chapter 04
00:34:43.125 : en:Chapter 05
00:44:02.291 : en:Chapter 06
01:00:07.750 : en:Chapter 07
01:06:42.875 : en:Chapter 08
01:14:17.125 : en:Chapter 09
01:22:32.208 : en:Chapter 10






General
Unique ID : 208832411071900252818328779084652350842 (0x9D1BA8CD6714213EA48E008D05500D7A)
Complete name : F:\Caravaggio.86.BFI.HEVC.7p\Caravaggio.86.BFI.HEVC.7p.mkv
Format : Matroska
Format version : Version 4 / Version 2
File size : 2.27 GiB
Duration : 1 h 32 min
Overall bit rate : 3 507 kb/s
Movie name : Release RSU75
Encoded date : UTC 2019-03-02 03:39:38
Writing application : mkvmerge v6.6.0 ('The Edge Of The In Between') built on Dec 1 2013 17:55:00
Writing library : libebml v1.3.0 + libmatroska v1.4.1

Video
ID : 1
Format : HEVC
Format/Info : High Efficiency Video Coding
Format profile : Main@L3.1@Main
Codec ID : V_MPEGH/ISO/HEVC
Duration : 1 h 32 min
Bit rate : 2 797 kb/s
Width : 1 280 pixels
Height : 692 pixels
Display aspect ratio : 1.85:1
Frame rate mode : Constant
Frame rate : 24.000 FPS
Color space : YUV
Chroma subsampling : 4:2:0
Bit depth : 8 bits
Bits/(Pixel*Frame) : 0.132
Stream size : 1.81 GiB (80%)
Writing library : x265 1.9+5-20f14d78dbad:[Windows][GCC 5.2.0][32 bit] 8bit
Encoding settings : wpp / ctu=64 / min-cu-size=8 / max-tu-size=32 / tu-intra-depth=1 / tu-inter-depth=1 / me=1 / subme=2 / merange=57 / no-rect / no-amp / max-merge=2 / temporal-mvp / no-early-skip / rdpenalty=0 / no-tskip / no-tskip-fast / strong-intra-smoothing / no-lossless / no-cu-lossless / no-constrained-intra / no-fast-intra / open-gop / no-temporal-layers / interlace=0 / keyint=250 / min-keyint=24 / scenecut=40 / rc-lookahead=20 / lookahead-slices=0 / bframes=4 / bframe-bias=0 / b-adapt=2 / ref=3 / limit-refs=3 / no-limit-modes / weightp / no-weightb / aq-mode=1 / qg-size=32 / aq-strength=1.00 / cbqpoffs=0 / crqpoffs=0 / rd=3 / psy-rd=2.00 / rdoq-level=0 / psy-rdoq=0.00 / signhide / deblock / sao / no-sao-non-deblock / b-pyramid / cutree / no-intra-refresh / rc=abr / bitrate=2900 / qcomp=0.60 / qpmin=0 / qpmax=51 / qpstep=4 / ipratio=1.40 / pbratio=1.30
Language : English
Default : Yes
Forced : No

Audio #1
ID : 2
Format : AC-3
Format/Info : Audio Coding 3
Commercial name : Dolby Digital
Codec ID : A_AC3
Duration : 1 h 32 min
Bit rate mode : Constant
Bit rate : 256 kb/s
Channel(s) : 1 channel
Channel layout : C
Sampling rate : 48.0 kHz
Frame rate : 31.250 FPS (1536 SPF)
Bit depth : 16 bits
Compression mode : Lossy
Stream size : 170 MiB (7%)
Language : English
Service kind : Complete Main
Default : Yes
Forced : No

Audio #2
ID : 3
Format : AC-3
Format/Info : Audio Coding 3
Commercial name : Dolby Digital
Codec ID : A_AC3
Duration : 1 h 32 min
Bit rate mode : Constant
Bit rate : 192 kb/s
Channel(s) : 2 channels
Channel layout : L R
Sampling rate : 48.0 kHz
Frame rate : 31.250 FPS (1536 SPF)
Bit depth : 16 bits
Compression mode : Lossy
Stream size : 128 MiB (5%)
Title : Commentary
Language : English
Service kind : Complete Main
Default : No
Forced : No

Audio #3
ID : 4
Format : AC-3
Format/Info : Audio Coding 3
Commercial name : Dolby Digital
Codec ID : A_AC3
Duration : 1 h 32 min
Bit rate mode : Constant
Bit rate : 192 kb/s
Channel(s) : 2 channels
Channel layout : L R
Sampling rate : 48.0 kHz
Frame rate : 31.250 FPS (1536 SPF)
Bit depth : 16 bits
Compression mode : Lossy
Stream size : 128 MiB (5%)
Title : Commentary
Language : English
Service kind : Complete Main
Default : No
Forced : No

Text
ID : 5
Format : PGS
Muxing mode : zlib
Codec ID : S_HDMV/PGS
Codec ID/Info : Picture based subtitle format used on BDs/HD-DVDs
Language : English
Default : Yes
Forced : No

Menu
00:00:00.000 : en:Chapter 01
00:08:45.250 : en:Chapter 02
00:19:15.458 : en:Chapter 03
00:27:13.291 : en:Chapter 04
00:34:43.125 : en:Chapter 05
00:44:02.291 : en:Chapter 06
01:00:07.750 : en:Chapter 07
01:06:42.875 : en:Chapter 08
01:14:17.125 : en:Chapter 09
01:22:32.208 : en:Chapter 10




Screenshots 1080p (click to enlarge to original size):

Caravaggio (1986)

Caravaggio (1986)

Caravaggio (1986)


Caravaggio (1986)



Screenshots 720p (click to enlarge to original size):

Caravaggio (1986)




–––––––––––––––––––––––––––––––––––––––-
>>> "BDRip" <<<OR >>> "Biograph, Drama" <<<OR >>> "BFI (British Film Institute)" <<<
–––––––––––––––––––––––––––––––––––––––-
>>> Visit Blog RSU75 Here <<<
–––––––––––––––––––––––––––––––––––––––-