Tags
Language
Tags

Curiosity TV - Bright Now: Series 2 (2020)

Posted By: notbanned
1080p (FullHD) / HDTV
Curiosity TV - Bright Now: Series 2 (2020)

Curiosity TV - Bright Now: Series 2 (2020)
HDTV | 1920x1080 | .MP4/AVC @ 4662 Kbps | 5x~11min | 2.00 GiB
Audio: English AAC 160 kbps, 2 channels | Subs: English
Genre: Documentary

Sometimes, we come across a curiosity that’s too brilliant to wait for a full feature or series. Spark your day Bright Now: a new set of intriguing, up-to-the-minute video shorts that cover science and tech, art and history, global issues, and the lively, expert personalities at the heart of it all.

Part 1: Saving Tokyo
Tokyo is the most populated urban zone on the planet. Built on a fault line, threatened by flooding and several active volcanoes, the city seems doomed to disappear, and yet it continues to grow. See the ambitious projects under development to save this unique city.

Part 2: Five Submarines Against the Nazis
During World War II, the submarines of the "Free French Naval Forces" scoured the Atlantic to neutralize the Nazi Navy. Discover the forgotten ships that made possible the liberation of France.

Part 3: The Mystery of U455
A mysterious World War II wreck is discovered off the coast of Italy by archeologists. Could this be the wreck of the long lost U-455, the last missing German U-boat?

Part 4: Bay of Crocs
The Cuban crocodile is an endangered species poised to disappear. Meet the people trying to save this unique animal from extinction.

Part 5: Fire Ant Invasion
The fire ant strikes fear in all those who cross its path, and with good reason: this ant is taking over the world. A colony can contain up to 40 million individuals. It exterminates all other species, confiscates food for its own use, and ferociously defends its territory.

General
Complete name : Bright.Now.Series.2.1of5.Saving.Tokyo.1080p.mp4
Format : MPEG-4
Format profile : Base Media
Codec ID : isom (isom)
File size : 385 MiB
Duration : 11 min 8 s
Overall bit rate mode : Variable
Overall bit rate : 4 825 kb/s

Video
ID : 1
Format : AVC
Format/Info : Advanced Video Codec
Format profile : High@L4.1
Format settings, CABAC : No
Format settings, ReFrames : 1 frame
Format settings, GOP : M=1, N=12
Codec ID : avc1
Codec ID/Info : Advanced Video Coding
Duration : 11 min 8 s
Bit rate : 4 662 kb/s
Maximum bit rate : 27.4 Mb/s
Width : 1 920 pixels
Height : 1 080 pixels
Display aspect ratio : 16:9
Frame rate mode : Constant
Frame rate : 25.000 FPS
Color space : YUV
Chroma subsampling : 4:2:0
Bit depth : 8 bits
Scan type : Progressive
Bits/(Pixel*Frame) : 0.090
Stream size : 372 MiB (97%)

Audio
ID : 2
Format : AAC
Format/Info : Advanced Audio Codec
Format profile : LC
Codec ID : 40
Duration : 11 min 8 s
Bit rate mode : Variable
Bit rate : 160 kb/s
Maximum bit rate : 205 kb/s
Channel(s) : 2 channels
Channel positions : Front: L R
Sampling rate : 48.0 kHz
Frame rate : 46.875 FPS (1024 spf)
Compression mode : Lossy
Stream size : 12.7 MiB (3%)
Encoded date : UTC 2020-05-21 18:51:36
Tagged date : UTC 2020-05-21 18:51:38

Text
ID : 3
Format : Timed Text
Codec ID : tx3g
Duration : 10 min 57 s
Bit rate mode : Variable
Bit rate : 112 b/s
Forced : No
Encoded date : UTC 2020-05-21 18:51:38
Tagged date : UTC 2020-05-21 18:51:38


Screenshots:

Curiosity TV - Bright Now: Series 2 (2020)

Curiosity TV - Bright Now: Series 2 (2020)

Curiosity TV - Bright Now: Series 2 (2020)

Curiosity TV - Bright Now: Series 2 (2020)