Tags
Language
Tags

Body at Brighton Rock (2019)

Posted By: Tavaz
1080p (FullHD) / BDRip IMDb
Body at Brighton Rock (2019)

Body at Brighton Rock (2019)
BDRip | MKV | 1920x1080 | English / English | H264 @ 5760 kbps | AC-3 @ 448 kbps | 1 h 27 min | 3.90 GiB
Subtitles: English
Genre: Thriller

When an inexperienced park ranger finds a dead body under mysterious circumstances on a remote mountain trail, she must guard it overnight until authorities can arrive, forcing her to confront some of her deepest, darkest fears.

78c828f7090a4df4943cc070a1c57b0c.mkv (3.9 GB)



General
Unique ID : 289383630876421101537202109080614845910 (0xD9B5429026294279A5B3EDC16ED1BDD6)
Complete name : ./78c828f7090a4df4943cc070a1c57b0c.mkv
Format : Matroska
Format version : Version 4 / Version 2
File size : 3.90 GiB
Duration : 1 h 27 min
Overall bit rate : 6 389 kb/s
Movie name : Body.at.Brighton.Rock.2019.1080p.BluRay.x264-nikt0
Encoded date : UTC 2019-08-10 22:44:56 / UTC 2019-08-09T15:21:15Z
Writing application : mkvmerge v35.0.0 ('All The Love In The World') 64-bit
Writing library : libebml v1.3.9 + libmatroska v1.5.2 / Lavf57.7.2

Video
ID : 1
Format : AVC
Format/Info : Advanced Video Codec
Format profile : High@L4
Format settings : CABAC / 4 Ref Frames
Format settings, CABAC : Yes
Format settings, RefFrames : 4 frames
Codec ID : V_MPEG4/ISO/AVC
Duration : 1 h 27 min
Bit rate : 5 760 kb/s
Width : 1 920 pixels
Height : 1 080 pixels
Display aspect ratio : 16:9
Frame rate mode : Constant
Frame rate : 23.976 (24000/1001) FPS
Color space : YUV
Chroma subsampling : 4:2:0
Bit depth : 8 bits
Scan type : Progressive
Bits/(Pixel*Frame) : 0.116
Stream size : 3.43 GiB (88%)
Writing library : x264 core 155 r2901 7d0ff22
Encoding settings : cabac=1 / ref=4 / deblock=1:-3:-3 / analyse=0x3:0x133 / me=umh / subme=9 / psy=1 / psy_rd=1.10:0.25 / mixed_ref=1 / me_range=32 / chroma_me=1 / trellis=2 / 8x8dct=1 / cqm=0 / deadzone=6,6 / fast_pskip=1 / chroma_qp_offset=-4 / threads=24 / lookahead_threads=2 / sliced_threads=0 / nr=0 / decimate=1 / interlaced=0 / bluray_compat=0 / constrained_intra=0 / bframes=6 / b_pyramid=2 / b_adapt=2 / b_bias=0 / direct=3 / weightb=1 / open_gop=0 / weightp=2 / keyint=240 / keyint_min=24 / scenecut=40 / intra_refresh=0 / rc_lookahead=40 / rc=2pass / mbtree=1 / bitrate=5760 / ratetol=1.0 / qcomp=0.60 / qpmin=0 / qpmax=69 / qpstep=4 / cplxblur=20.0 / qblur=0.5 / vbv_maxrate=20000 / vbv_bufsize=25000 / nal_hrd=none / filler=0 / ip_ratio=1.40 / aq=1:1.00
Default : Yes
Forced : No
Color range : Limited
Color primaries : BT.709
Transfer characteristics : BT.709
Matrix coefficients : BT.709
Statistics Tags Issue : mkvmerge v35.0.0 ('All The Love In The World') 64-bit 2019-08-10 22:44:56 / mkvmerge v35.0.0 ('All The Love In The World') 64-bit 2019-08-10 22:44:56 / UTC 2019-08-09T15:21:15Z
FromStats_BitRate : 5747299
FromStats_Duration : 01:27:19.860000000
FromStats_FrameCount : 125631
FromStats_StreamSize : 3764380617

Audio #1
ID : 2
Format : AC-3
Format/Info : Audio Coding 3
Format settings, Endianness : Big
Codec ID : A_AC3
Duration : 1 h 27 min
Bit rate mode : Constant
Bit rate : 448 kb/s
Channel(s) : 6 channels
Channel positions : Front: L C R, Side: L R, LFE
Sampling rate : 48.0 kHz
Frame rate : 31.250 FPS (1536 SPF)
Bit depth : 16 bits
Compression mode : Lossy
Stream size : 280 MiB (7%)
Title : Surround
Language : English
Service kind : Complete Main
Default : Yes
Forced : No
Statistics Tags Issue : mkvmerge v35.0.0 ('All The Love In The World') 64-bit 2019-08-10 22:44:56 / mkvmerge v35.0.0 ('All The Love In The World') 64-bit 2019-08-10 22:44:56 / UTC 2019-08-09T15:21:15Z
FromStats_BitRate : 448000
FromStats_Duration : 01:27:19.840000000
FromStats_FrameCount : 163745
FromStats_StreamSize : 293431040

Audio #2
ID : 3
Format : AC-3
Format/Info : Audio Coding 3
Format settings, Endianness : Big
Codec ID : A_AC3
Duration : 1 h 27 min
Bit rate mode : Constant
Bit rate : 192 kb/s
Channel(s) : 2 channels
Channel positions : Front: L R
Sampling rate : 48.0 kHz
Frame rate : 31.250 FPS (1536 SPF)
Bit depth : 16 bits
Compression mode : Lossy
Stream size : 120 MiB (3%)
Title : Stereo commentary
Language : English
Service kind : Complete Main
Default : No
Forced : No
Statistics Tags Issue : mkvmerge v35.0.0 ('All The Love In The World') 64-bit 2019-08-10 22:44:56 / mkvmerge v35.0.0 ('All The Love In The World') 64-bit 2019-08-10 22:44:56 / UTC 2019-08-09T15:21:15Z
FromStats_BitRate : 192000
FromStats_Duration : 01:27:19.872000000
FromStats_FrameCount : 163746
FromStats_StreamSize : 125756928

Text
ID : 4
Format : UTF-8
Codec ID : S_TEXT/UTF8
Codec ID/Info : UTF-8 Plain Text
Language : English
Default : Yes
Forced : No
Statistics Tags Issue : mkvmerge v35.0.0 ('All The Love In The World') 64-bit 2019-08-10 22:44:56 / mkvmerge v35.0.0 ('All The Love In The World') 64-bit 2019-08-10 22:44:56 / UTC 2019-08-09T15:21:15Z
FromStats_BitRate : 32
FromStats_Duration : 01:24:27.771000000
FromStats_FrameCount : 728
FromStats_StreamSize : 20625

Menu
00:00:00.000 : :Stay Safe
00:06:58.126 : :Plan Your Hike
00:14:38.461 : :Haunted
00:23:41.295 : :Hello?
00:31:41.566 : :Illegal
00:37:25.535 : :Are You OK?
00:44:45.141 : :Broken
00:50:59.390 : :Night
01:01:06.663 : :Dream
01:07:29.796 : :Repellant
01:15:43.039 : :Stop
01:24:14.049 : :End Credits





Body at Brighton Rock (2019)


Body at Brighton Rock (2019)


Body at Brighton Rock (2019)


Body at Brighton Rock (2019)


Body at Brighton Rock (2019)