Black Hole Hunters (2019)

Posted By: Without
1080p (FullHD) / WEB-DL
Black Hole Hunters (2019)

Black Hole Hunters (2019)
WEB-DL | MKV | 44 min 0 s | 669 MB | 960x540 | AVC@2000 kb/s | English AAC@125 kb/s, 2 ch
WEB-DL 720p | MKV | 44 min 0 s | 1.04 GB | 1280x720 | AVC@3200 kb/s | English AC3@192 kb/s, 2 ch
WEB-DL 1080p | MKV | 44 min 0 s | 1.44 GB | 1920x1080 | AVC@4500 kb/s | English AC3@192 kb/s, 2 ch
Subs: English
Genre: Documentary

Astronomer Shep Doeleman and his team are on a mission that will challenge the theories of Albert Einstein and could pave the way to a revolution in physics: to capture the first-ever image of a black hole. To do this, they must link eight multimillion-dollar observatories around the world to a spot 26,000 light years away. It's the equivalent of spotting an orange on the moon, but after 10 years of planning and the combined brainpower of over 200 international scientists, the team feels they're ready to make scientific history.



General
Black.Hole.Hunters.2019.WEB.h264-CAFFEiNE.mkv
Format : Matroska
Format version : Version 4 / Version 2
File size : 669 MB
Duration : 44 min 0 s
Overall bit rate : 2127 kb/s
Encoded date : UTC 2019-04-15 18:08:00
Writing application : mkvmerge v32.0.0 ('Astral Progressions') 64-bit
Writing library : libebml v1.3.7 + libmatroska v1.5.0

Video
ID : 1
Format : AVC
Format/Info : Advanced Video Codec
Format profile : Main@L3.1
Format settings, CABAC : Yes
Format settings, ReFrames : 2 frames
Format settings, GOP : M=2, N=60
Codec ID : V_MPEG4/ISO/AVC
Duration : 44 min 0 s
Bit rate mode : Constant
Bit rate : 2000 kb/s
Width : 960 pixels
Height : 540 pixels
Display aspect ratio : 16:9
Frame rate mode : Constant
Frame rate : 29.970 (30000/1001) FPS
Color space : YUV
Chroma subsampling : 4:2:0
Bit depth : 8 bits
Scan type : Progressive
Bits/(Pixel*Frame) : 0.129
Stream size : 629 MB (94%)
Language : English
Default : Yes
Forced : No

Audio
ID : 2
Format : AAC
Format/Info : Advanced Audio Codec
Format profile : LC
Codec ID : A_AAC
Duration : 44 min 0 s
Bit rate : 125 kb/s
Channel(s) : 2 channels
Channel positions : Front: L R
Sampling rate : 48.0 kHz
Frame rate : 46.875 FPS (1024 spf)
Compression mode : Lossy
Stream size : 39.5 MB (6%)
Language : English
Default : Yes
Forced : No

Text
ID : 3
Format : UTF-8
Codec ID : S_TEXT/UTF8
Codec ID/Info : UTF-8 Plain Text
Duration : 43 min 52 s
Bit rate : 116 b/s
Count of elements : 872
Stream size : 37.5 KiB (0%)
Language : English
Default : No
Forced : No


General
Black.Hole.Hunters.2019.720p.WEB.h264-CAFFEiNE.mkv
Format : Matroska
Format version : Version 4 / Version 2
File size : 1.04 GB
Duration : 44 min 0 s
Overall bit rate : 3393 kb/s
Encoded date : UTC 2019-04-15 18:08:02
Writing application : mkvmerge v32.0.0 ('Astral Progressions') 64-bit
Writing library : libebml v1.3.7 + libmatroska v1.5.0

Video
ID : 1
Format : AVC
Format/Info : Advanced Video Codec
Format profile : Main@L3.2
Format settings, CABAC : Yes
Format settings, ReFrames : 2 frames
Format settings, GOP : M=2, N=60
Codec ID : V_MPEG4/ISO/AVC
Duration : 44 min 0 s
Bit rate mode : Constant
Bit rate : 3200 kb/s
Width : 1280 pixels
Height : 720 pixels
Display aspect ratio : 16:9
Frame rate mode : Constant
Frame rate : 29.970 (30000/1001) FPS
Color space : YUV
Chroma subsampling : 4:2:0
Bit depth : 8 bits
Scan type : Progressive
Bits/(Pixel*Frame) : 0.116
Stream size : 1007 MB (94%)
Language : English
Default : Yes
Forced : No

Audio
ID : 2
Format : AC-3
Format/Info : Audio Coding 3
Mode extension : CM (complete main)
Format settings, Endianness : Big
Codec ID : A_AC3
Duration : 44 min 0 s
Bit rate mode : Constant
Bit rate : 192 kb/s
Channel(s) : 2 channels
Channel positions : Front: L R
Sampling rate : 48.0 kHz
Frame rate : 31.250 FPS (1536 spf)
Bit depth : 16 bits
Compression mode : Lossy
Stream size : 60.4 MB (6%)
Language : English
Default : Yes
Forced : No

Text
ID : 3
Format : UTF-8
Codec ID : S_TEXT/UTF8
Codec ID/Info : UTF-8 Plain Text
Duration : 43 min 52 s
Bit rate : 116 b/s
Count of elements : 872
Stream size : 37.5 KiB (0%)
Language : English
Default : No
Forced : No


General
Black.Hole.Hunters.2019.1080p.WEB.h264-CAFFEiNE.mkv
Format : Matroska
Format version : Version 4 / Version 2
File size : 1.44 GB
Duration : 44 min 0 s
Overall bit rate : 4693 kb/s
Encoded date : UTC 2019-04-15 18:07:56
Writing application : mkvmerge v32.0.0 ('Astral Progressions') 64-bit
Writing library : libebml v1.3.7 + libmatroska v1.5.0

Video
ID : 1
Format : AVC
Format/Info : Advanced Video Codec
Format profile : High@L4
Format settings, CABAC : Yes
Format settings, ReFrames : 2 frames
Format settings, GOP : M=2, N=60
Codec ID : V_MPEG4/ISO/AVC
Duration : 44 min 0 s
Bit rate mode : Constant
Bit rate : 4500 kb/s
Width : 1920 pixels
Height : 1080 pixels
Display aspect ratio : 16:9
Frame rate mode : Constant
Frame rate : 29.970 (30000/1001) FPS
Color space : YUV
Chroma subsampling : 4:2:0
Bit depth : 8 bits
Scan type : Progressive
Bits/(Pixel*Frame) : 0.072
Stream size : 1.38 GB (96%)
Language : English
Default : Yes
Forced : No

Audio
ID : 2
Format : AC-3
Format/Info : Audio Coding 3
Mode extension : CM (complete main)
Format settings, Endianness : Big
Codec ID : A_AC3
Duration : 44 min 0 s
Bit rate mode : Constant
Bit rate : 192 kb/s
Channel(s) : 2 channels
Channel positions : Front: L R
Sampling rate : 48.0 kHz
Frame rate : 31.250 FPS (1536 spf)
Bit depth : 16 bits
Compression mode : Lossy
Stream size : 60.4 MB (4%)
Language : English
Default : Yes
Forced : No

Text
ID : 3
Format : UTF-8
Codec ID : S_TEXT/UTF8
Codec ID/Info : UTF-8 Plain Text
Duration : 43 min 52 s
Bit rate : 116 b/s
Count of elements : 872
Stream size : 37.5 KiB (0%)
Language : English
Default : No
Forced : No



WEB-DL Screenshots

Black Hole Hunters (2019)

Black Hole Hunters (2019)

Black Hole Hunters (2019)

Black Hole Hunters (2019)


WEB-DL 720p Screenshots

Black Hole Hunters (2019)

Black Hole Hunters (2019)

Black Hole Hunters (2019)

Black Hole Hunters (2019)


WEB-DL 1080p Screenshots

Black Hole Hunters (2019)

Black Hole Hunters (2019)

Black Hole Hunters (2019)

Black Hole Hunters (2019)


Come Visit My Blog (•‿•)