Black Mother (2018)

Posted By: notbanned
SD / DVDRip IMDb
Black Mother (2018)

Black Mother (2018)
DVDRip | 1720x404 | .MKV/AVC @ 1923 Kbps | 1 h 13 min | 1.04 GiB
Audio: English AAC 93.3 kbps, 2 channels | Subs: None
Genre: Documentary

From red light districts to lush rain-forests, 'Black Mother' is a loving and lyrical ode to Jamaica and its people, a visual poem that is at once deeply felt love letter and ecstatic street-corner prayer.

General
Unique ID : 245907711369144370378203105635133893436 (0xB9001A3CA9F1F7D299262A8B66F12B3C)
Complete name : Black.Mother.2018.DVDRip.mkv
Format : Matroska
Format version : Version 2
File size : 1.04 GiB
Duration : 1 h 13 min
Overall bit rate : 2 018 kb/s

Video
ID : 1
Format : AVC
Format/Info : Advanced Video Codec
Format profile : High@L3.1
Format settings, CABAC : Yes
Format settings, ReFrames : 5 frames
Codec ID : V_MPEG4/ISO/AVC
Duration : 1 h 13 min
Bit rate : 1 923 kb/s
Width : 702 pixels
Height : 404 pixels
Display aspect ratio : 1.738
Frame rate mode : Constant
Frame rate : 25.000 FPS
Color space : YUV
Chroma subsampling : 4:2:0
Bit depth : 8 bits
Scan type : Progressive
Bits/(Pixel*Frame) : 0.271
Stream size : 1 016 MiB (95%)
Writing library : x264 core 157 r2969 d4099dd
Encoding settings : cabac=1 / ref=5 / deblock=1:0:0 / analyse=0x3:0x113 / me=hex / subme=8 / psy=1 / psy_rd=1.00:0.00 / mixed_ref=1 / me_range=16 / chroma_me=1 / trellis=2 / 8x8dct=1 / cqm=0 / deadzone=21,11 / fast_pskip=1 / chroma_qp_offset=-2 / threads=6 / lookahead_threads=1 / sliced_threads=0 / nr=0 / decimate=1 / interlaced=0 / bluray_compat=0 / constrained_intra=0 / bframes=3 / b_pyramid=2 / b_adapt=1 / b_bias=0 / direct=3 / weightb=1 / open_gop=0 / weightp=2 / keyint=250 / keyint_min=25 / scenecut=40 / intra_refresh=0 / rc_lookahead=50 / rc=crf / mbtree=1 / crf=19.0 / qcomp=0.60 / qpmin=10 / qpmax=51 / qpstep=4 / vbv_maxrate=17500 / vbv_bufsize=17500 / crf_max=0.0 / nal_hrd=none / filler=0 / ip_ratio=1.40 / aq=1:1.00
Language : English
Default : Yes
Forced : No

Audio
ID : 2
Format : AAC
Format/Info : Advanced Audio Codec
Format profile : LC
Codec ID : A_AAC
Duration : 1 h 13 min
Bit rate : 93.3 kb/s
Channel(s) : 2 channels
Channel positions : Front: L R
Sampling rate : 48.0 kHz
Frame rate : 46.875 FPS (1024 spf)
Compression mode : Lossy
Delay relative to video : 9 ms
Stream size : 49.3 MiB (5%)
Language : English
Default : Yes
Forced : No


Screenshots:

Black Mother (2018)

Black Mother (2018)

Black Mother (2018)

Black Mother (2018)