Tags
Language
Tags

Good Work / Beau travail (1999)

Posted By: Without
1080p (FullHD) / BDRip IMDb
Good Work / Beau travail (1999)

Good Work / Beau travail (1999)
BDRip 720p | MKV | 1 h 33 min | 6.74 GB | 1200x720 | AVC@9803 kb/s | Français FLAC@528 kb/s, 2 ch
BDRip 1080p | MKV | 1 h 33 min | 14.3 GB | 1800x1080 | AVC@21.5 Mb/s | Français FLAC@528 kb/s, 2 ch
Subs: English
Genre: Drama, War

This film focuses on an ex-Foreign Legion officer as he recalls his once glorious life, leading troops in Djibouti.

IMDB - 6 wins & 10 nominations.


General
Good.Work.1999.720p.BluRay.FLAC.2.0.x264-iFT.mkv
Format : Matroska
Format version : Version 4 / Version 2
File size : 6.74 GB
Duration : 1 h 33 min
Overall bit rate mode : Variable
Overall bit rate : 10.3 Mb/s
Movie name : Good.Work.1999.720p.BluRay.FLAC.2.0.x264-iFT
Encoded date : UTC 2020-09-15 22:34:09
Writing application : mkvmerge v50.0.0 ('Awakenings') 64-bit
Writing library : libebml v1.4.0 + libmatroska v1.6.2

Video
ID : 1
Format : AVC
Format/Info : Advanced Video Codec
Format profile : High@L4.1
Format settings, CABAC : Yes
Format settings, ReFrames : 9 frames
Codec ID : V_MPEG4/ISO/AVC
Duration : 1 h 33 min
Bit rate : 9803 kb/s
Width : 1200 pixels
Height : 720 pixels
Display aspect ratio : 5:3
Frame rate mode : Constant
Frame rate : 23.976 (24000/1001) FPS
Color space : YUV
Chroma subsampling : 4:2:0
Bit depth : 8 bits
Scan type : Progressive
Bits/(Pixel*Frame) : 0.473
Stream size : 6.39 GB (95%)
Writing library : x264 core 161 r3018+53 ~ Encoded by Mocunaman in Portugal
Encoding settings : cabac=1 / ref=9 / deblock=1:-3:-3 / analyse=0x3:0x113 / me=umh / subme=11 / psy=1 / fade_compensate=0.00 / psy_rd=1.05:0.00 / mixed_ref=1 / me_range=32 / chroma_me=1 / trellis=2 / 8x8dct=1 / cqm=0 / deadzone=21,11 / fast_pskip=0 / chroma_qp_offset=-2 / threads=22 / lookahead_threads=5 / sliced_threads=0 / nr=0 / decimate=0 / interlaced=0 / bluray_compat=0 / constrained_intra=0 / fgo=0 / bframes=14 / b_pyramid=2 / b_adapt=2 / b_bias=0 / direct=3 / weightb=1 / open_gop=0 / weightp=2 / keyint=250 / keyint_min=23 / scenecut=40 / intra_refresh=0 / rc_lookahead=60 / rc=crf / mbtree=0 / crf=18.8000 / qcomp=0.65 / qpmin=0:0:0 / qpmax=69:69:69 / qpstep=4 / vbv_maxrate=62500 / vbv_bufsize=78125 / crf_max=0.0 / nal_hrd=none / filler=0 / ip_ratio=1.30 / pb_ratio=1.20 / aq=3:0.70 / aq-sensitivity=10.00 / aq-factor=1.00:1.00:1.00 / aq2=0 / aq3=0
Language : English
Default : Yes
Forced : No
Color range : Limited
Color primaries : BT.709
Transfer characteristics : BT.709
Matrix coefficients : BT.709

Audio
ID : 2
Format : FLAC
Format/Info : Free Lossless Audio Codec
Codec ID : A_FLAC
Duration : 1 h 33 min
Bit rate mode : Variable
Bit rate : 528 kb/s
Channel(s) : 2 channels
Channel positions : Front: L R
Sampling rate : 48.0 kHz
Frame rate : 11.719 FPS (4096 spf)
Bit depth : 16 bits
Stream size : 352 MB (5%)
Title : FLAC 2.0
Writing library : libFLAC 1.2.1 (UTC 2007-09-17)
Language : French
Default : Yes
Forced : No

Text
ID : 3
Format : UTF-8
Codec ID : S_TEXT/UTF8
Codec ID/Info : UTF-8 Plain Text
Duration : 1 h 27 min
Bit rate : 14 b/s
Count of elements : 315
Stream size : 9.12 KiB (0%)
Title : Full
Language : English
Default : Yes
Forced : No

Menu
00:00:00.000 : en:1. "Honor and Valor"
00:03:17.488 : en:2. To Djibouti
00:09:52.008 : en:3. Gilles Sentain
00:15:47.404 : en:4. Bruno Forestier
00:19:33.839 : en:5. Bar des Alpes
00:25:47.045 : en:6. Drills
00:29:42.322 : en:7. Seduced
00:36:29.770 : en:8. Heavy Maneuvers
00:41:27.985 : en:9. Regrets
00:46:45.928 : en:10. Three Volcanoes
00:53:20.655 : en:11. Grappling
01:01:24.138 : en:12. Found
01:07:01.017 : en:13. Punishment
01:14:25.461 : en:14. Lost
01:19:34.352 : en:15. Exiled
01:25:52.105 : en:16. "Serve the Cause and Die"
01:29:01.377 : en:17. Galoup's Dance


General
Good.Work.1999.1080p.BluRay.FLAC.2.0.x264-iFT.mkv
Format : Matroska
Format version : Version 4 / Version 2
File size : 14.3 GB
Duration : 1 h 33 min
Overall bit rate mode : Variable
Overall bit rate : 22.0 Mb/s
Movie name : Good.Work.1999.1080p.BluRay.FLAC.2.0.x264-iFT
Encoded date : UTC 2020-09-15 19:57:25
Writing application : mkvmerge v50.0.0 ('Awakenings') 64-bit
Writing library : libebml v1.4.0 + libmatroska v1.6.2

Video
ID : 1
Format : AVC
Format/Info : Advanced Video Codec
Format profile : High@L4.1
Format settings, CABAC : Yes
Format settings, ReFrames : 4 frames
Codec ID : V_MPEG4/ISO/AVC
Duration : 1 h 33 min
Bit rate : 21.5 Mb/s
Width : 1800 pixels
Height : 1080 pixels
Display aspect ratio : 5:3
Frame rate mode : Constant
Frame rate : 23.976 (24000/1001) FPS
Color space : YUV
Chroma subsampling : 4:2:0
Bit depth : 8 bits
Scan type : Progressive
Bits/(Pixel*Frame) : 0.460
Stream size : 14.0 GB (98%)
Writing library : x264 core 161 r3018+53 ~ Encoded by Mocunaman in Portugal
Encoding settings : cabac=1 / ref=4 / deblock=1:-3:-3 / analyse=0x3:0x113 / me=umh / subme=11 / psy=1 / fade_compensate=0.00 / psy_rd=1.08:0.00 / mixed_ref=1 / me_range=32 / chroma_me=1 / trellis=2 / 8x8dct=1 / cqm=0 / deadzone=21,11 / fast_pskip=0 / chroma_qp_offset=-2 / threads=34 / lookahead_threads=8 / sliced_threads=0 / nr=0 / decimate=0 / interlaced=0 / bluray_compat=0 / constrained_intra=0 / fgo=0 / bframes=14 / b_pyramid=2 / b_adapt=2 / b_bias=0 / direct=3 / weightb=1 / open_gop=0 / weightp=2 / keyint=250 / keyint_min=23 / scenecut=40 / intra_refresh=0 / rc_lookahead=60 / rc=crf / mbtree=0 / crf=20.1000 / qcomp=0.65 / qpmin=0:0:0 / qpmax=69:69:69 / qpstep=4 / vbv_maxrate=62500 / vbv_bufsize=78125 / crf_max=0.0 / nal_hrd=none / filler=0 / ip_ratio=1.30 / pb_ratio=1.20 / aq=3:0.70 / aq-sensitivity=10.00 / aq-factor=1.00:1.00:1.00 / aq2=0 / aq3=0
Language : English
Default : Yes
Forced : No
Color range : Limited
Color primaries : BT.709
Transfer characteristics : BT.709
Matrix coefficients : BT.709

Audio
ID : 2
Format : FLAC
Format/Info : Free Lossless Audio Codec
Codec ID : A_FLAC
Duration : 1 h 33 min
Bit rate mode : Variable
Bit rate : 528 kb/s
Channel(s) : 2 channels
Channel positions : Front: L R
Sampling rate : 48.0 kHz
Frame rate : 11.719 FPS (4096 spf)
Bit depth : 16 bits
Stream size : 352 MB (2%)
Title : FLAC 2.0
Writing library : libFLAC 1.2.1 (UTC 2007-09-17)
Language : French
Default : Yes
Forced : No

Text
ID : 3
Format : UTF-8
Codec ID : S_TEXT/UTF8
Codec ID/Info : UTF-8 Plain Text
Duration : 1 h 27 min
Bit rate : 14 b/s
Count of elements : 315
Stream size : 9.12 KiB (0%)
Title : Full
Language : English
Default : Yes
Forced : No

Menu
00:00:00.000 : en:1. "Honor and Valor"
00:03:17.488 : en:2. To Djibouti
00:09:52.008 : en:3. Gilles Sentain
00:15:47.404 : en:4. Bruno Forestier
00:19:33.839 : en:5. Bar des Alpes
00:25:47.045 : en:6. Drills
00:29:42.322 : en:7. Seduced
00:36:29.770 : en:8. Heavy Maneuvers
00:41:27.985 : en:9. Regrets
00:46:45.928 : en:10. Three Volcanoes
00:53:20.655 : en:11. Grappling
01:01:24.138 : en:12. Found
01:07:01.017 : en:13. Punishment
01:14:25.461 : en:14. Lost
01:19:34.352 : en:15. Exiled
01:25:52.105 : en:16. "Serve the Cause and Die"
01:29:01.377 : en:17. Galoup's Dance



BDRip 720p Screenshots

Good Work / Beau travail (1999)

Good Work / Beau travail (1999)

Good Work / Beau travail (1999)


BDRip 1080p Screenshots

Good Work / Beau travail (1999)

Good Work / Beau travail (1999)

Good Work / Beau travail (1999)


Come Visit My Blog (•‿•)