Tags
Language
Tags

Balls to the Wall (2011)

Posted By: Tavaz
1080p (FullHD) / BDRip IMDb
Balls to the Wall (2011)

Balls to the Wall (2011)
BDRip | MKV | 1916x1080 | English | H264 @ 11700 kbps | AC-3 @ 640 kbps | 1 h 28 min | 7.64 GiB
Genre: Comedy

Ben's fiancée has her heart set on an expensive dream wedding, but her father, Jack, has secretly gambled away all his money. When Ben discovers he has a talent for exotic dancing, Jack pushes him to moonlight as a stripper to finance the wedding.

64b1216eb7926a332a87c3cd8b147585.mkv (7.6 GB)



General
Unique ID : 165122871407118847243529053085055715682 (0x7C39821CF97F63096371A79E975E0962)
Complete name : ./64b1216eb7926a332a87c3cd8b147585.mkv
Format : Matroska
Format version : Version 4 / Version 2
File size : 7.64 GiB
Duration : 1 h 28 min
Overall bit rate : 12.3 Mb/s
Movie name : Balls to the Wall [2011] 1080p BluRay - HJ
Encoded date : UTC 2020-09-25 18:14:31
Writing application : mkvmerge v50.0.0 ('Awakenings') 64-bit
Writing library : libebml v1.4.0 + libmatroska v1.6.2

Video
ID : 2
Format : AVC
Format/Info : Advanced Video Codec
Format profile : High@L4.1
Format settings : CABAC / 4 Ref Frames
Format settings, CABAC : Yes
Format settings, RefFrames : 4 frames
Codec ID : V_MPEG4/ISO/AVC
Duration : 1 h 28 min
Bit rate : 11.7 Mb/s
Width : 1 916 pixels
Height : 1 080 pixels
Display aspect ratio : 16:9
Frame rate mode : Constant
Frame rate : 23.976 (24000/1001) FPS
Color space : YUV
Chroma subsampling : 4:2:0
Bit depth : 8 bits
Scan type : Progressive
Bits/(Pixel*Frame) : 0.236
Stream size : 7.24 GiB (95%)
Writing library : x264 core 157 r2935 545de2f
Encoding settings : cabac=1 / ref=4 / deblock=1:-3:-3 / analyse=0x3:0x133 / me=umh / subme=10 / psy=1 / psy_rd=1.00:0.00 / mixed_ref=1 / me_range=32 / chroma_me=1 / trellis=2 / 8x8dct=1 / cqm=0 / deadzone=21,11 / fast_pskip=0 / chroma_qp_offset=-2 / threads=14 / lookahead_threads=3 / sliced_threads=0 / nr=0 / decimate=0 / interlaced=0 / bluray_compat=0 / constrained_intra=0 / bframes=16 / b_pyramid=2 / b_adapt=2 / b_bias=0 / direct=3 / weightb=1 / open_gop=0 / weightp=2 / keyint=240 / keyint_min=24 / scenecut=40 / intra_refresh=0 / rc_lookahead=60 / rc=crf / mbtree=0 / crf=21.0 / qcomp=0.60 / qpmin=0 / qpmax=69 / qpstep=4 / vbv_maxrate=62500 / vbv_bufsize=78125 / crf_max=0.0 / nal_hrd=none / filler=0 / ip_ratio=1.40 / pb_ratio=1.30 / aq=2:1.00
Default : Yes
Forced : No
Color range : Limited
Color primaries : BT.709
Transfer characteristics : BT.709
Matrix coefficients : BT.709

Audio
ID : 1
Format : AC-3
Format/Info : Audio Coding 3
Format settings, Endianness : Big
Codec ID : A_AC3
Duration : 1 h 28 min
Bit rate mode : Constant
Bit rate : 640 kb/s
Channel(s) : 6 channels
Channel positions : Front: L C R, Side: L R, LFE
Sampling rate : 48.0 kHz
Frame rate : 31.250 FPS (1536 SPF)
Bit depth : 16 bits
Compression mode : Lossy
Stream size : 406 MiB (5%)
Language : English
Service kind : Complete Main
Default : Yes
Forced : No

Menu
00:00:00.000 : :Chapter 1
00:05:53.937 : :Chapter 2
00:11:51.628 : :Chapter 3
00:25:51.884 : :Chapter 4
00:37:41.468 : :Chapter 5
00:50:31.111 : :Chapter 6
00:57:30.530 : :Chapter 7
01:09:18.321 : :Chapter 8
01:20:03.299 : :Chapter 9





Balls to the Wall (2011)


Balls to the Wall (2011)


Balls to the Wall (2011)


Balls to the Wall (2011)


Balls to the Wall (2011)