Tags
Language
Tags

BBC - Inside the Factory Series 3: Sauces (2018)

Posted By: notbanned
720p (HD) / HDTV
BBC - Inside the Factory Series 3: Sauces (2018)

BBC - Inside the Factory Series 3: Sauces (2018)
HDTV | 1280x720 | .MP4/AVC @ 3200 Kbps | 58 min 48 s | 1.39 GiB
Audio: English AAC 160 kbps, 2 channels | Subs: English
Genre: Documentary

Gregg Wallace is in the Netherlands at one of the world's biggest sauce factories. Its annual output is a quarter of a million tonnes of condiments, and more than 50 per cent of this heads to the UK. Our passion for sauces sees us consume 40 million kilos of mayonnaise every year. Gregg follows its production from a farm near Arnhem, where 23,000 free range hens produce the eggs, to the factory, where he is wowed by an egg cracking machine that can separate the yolks and whites from 1,700 eggs a minute. Meanwhile, Cherry Healey is making the glass jars Gregg needs for his mayonnaise. She is at a vast factory in Maastricht, where a furnace holding 250 tonnes of molten glass has been running continuously for the last 11 years. Historian Ruth Goodman discovers how Brits fell in love with mayonnaise. She traces it back to the introduction of the bottled sauce in the 1960s and samples a series of unusual mayonnaise dishes.

General
Complete name : BBC.Inside.the.Factory.Series.3.Sauces.720p.mp4
Format : MPEG-4
Format profile : Base Media
Codec ID : isom (isom)
File size : 1.39 GiB
Duration : 58 min 48 s
Overall bit rate mode : Variable
Overall bit rate : 3 394 kb/s

Video
ID : 1
Format : AVC
Format/Info : Advanced Video Codec
Format profile : High@L4.1
Format settings, CABAC : Yes
Format settings, ReFrames : 4 frames
Codec ID : avc1
Codec ID/Info : Advanced Video Coding
Duration : 58 min 48 s
Bit rate : 3 200 kb/s
Maximum bit rate : 15.0 Mb/s
Width : 1 280 pixels
Height : 720 pixels
Display aspect ratio : 16:9
Frame rate mode : Constant
Frame rate : 25.000 FPS
Color space : YUV
Chroma subsampling : 4:2:0
Bit depth : 8 bits
Scan type : Progressive
Bits/(Pixel*Frame) : 0.139
Stream size : 1.33 GiB (95%)
Encoding settings : cabac=1 / ref=1 / deblock=1:0:0 / analyse=0x3:0x113 / me=hex / subme=2 / psy=1 / psy_rd=1.00:0.00 / mixed_ref=0 / me_range=16 / chroma_me=1 / trellis=0 / 8x8dct=1 / cqm=0 / deadzone=21,11 / fast_pskip=1 / chroma_qp_offset=0 / threads=6 / lookahead_threads=2 / sliced_threads=0 / nr=0 / decimate=1 / interlaced=0 / bluray_compat=0 / constrained_intra=0 / bframes=3 / b_pyramid=2 / b_adapt=1 / b_bias=0 / direct=1 / weightb=1 / open_gop=0 / weightp=1 / keyint=250 / keyint_min=25 / scenecut=40 / intra_refresh=0 / rc_lookahead=10 / rc=abr / mbtree=1 / bitrate=3200 / ratetol=1.0 / qcomp=0.60 / qpmin=0 / qpmax=69 / qpstep=4 / vbv_maxrate=62500 / vbv_bufsize=78125 / nal_hrd=none / ip_ratio=1.40 / aq=1:1.00
Encoded date : UTC 2018-01-09 22:31:48
Tagged date : UTC 2018-01-10 13:14:57
Color range : Limited
Color primaries : BT.709
Transfer characteristics : BT.709
Matrix coefficients : BT.709

Audio
ID : 2
Format : AAC
Format/Info : Advanced Audio Codec
Format profile : LC
Codec ID : 40
Duration : 58 min 48 s
Bit rate mode : Variable
Bit rate : 160 kb/s
Maximum bit rate : 245 kb/s
Channel(s) : 2 channels
Channel positions : Front: L R
Sampling rate : 48.0 kHz
Frame rate : 46.875 FPS (1024 spf)
Compression mode : Lossy
Stream size : 67.3 MiB (5%)
Encoded date : UTC 2018-01-10 13:14:52
Tagged date : UTC 2018-01-10 13:14:57

Text
ID : 3
Format : Timed Text
Codec ID : tx3g
Duration : 58 min 17 s
Bit rate mode : Variable
Bit rate : 213 b/s
Stream size : 90.7 KiB (0%)
Forced : No
Encoded date : UTC 2018-01-10 13:14:57
Tagged date : UTC 2018-01-10 13:14:57


Screenshots:

BBC - Inside the Factory Series 3: Sauces (2018)

BBC - Inside the Factory Series 3: Sauces (2018)

BBC - Inside the Factory Series 3: Sauces (2018)

BBC - Inside the Factory Series 3: Sauces (2018)