Tags
Language
Tags

Assault on Wall Street (2013)

Posted By: Tavaz
1080p (FullHD) / BDRip IMDb
Assault on Wall Street (2013)

Assault on Wall Street (2013)
BDRip | MKV | 1920x1080 | English | H264 @ 5760 kbps | AC-3 @ 448 kbps | 1 h 38 min | 4.41 GiB
Subtitles: English
Genre: Action, Drama, Thriller

Jim is an average New Yorker living a peaceful life with a well paying job and a loving family. Suddenly, everything changes when the economy crashes causing Jim to lose everything. Filled with anger and rage, Jim snaps and goes to extreme lengths to seek revenge for the life taken from him.

b435d1a1c812d5b7b2f2edabe454cc42.mkv (4.4 GB)



General
Complete name : ./b435d1a1c812d5b7b2f2edabe454cc42.mkv
Format : Matroska
Format version : Version 4 / Version 2
File size : 4.41 GiB
Duration : 1 h 38 min
Overall bit rate : 6 396 kb/s
Encoded date : UTC 2020-09-15 01:57:45 / UTC 2020-09-13T01:01:29Z
Writing application : mkvmerge v47.0.0 ('Black Flag') 64-bit
Writing library : libebml v1.3.10 + libmatroska v1.5.2 / Lavf57.7.2

Video
ID : 1
Format : AVC
Format/Info : Advanced Video Codec
Format profile : High@L4
Format settings : CABAC / 4 Ref Frames
Format settings, CABAC : Yes
Format settings, RefFrames : 4 frames
Codec ID : V_MPEG4/ISO/AVC
Duration : 1 h 38 min
Bit rate : 5 760 kb/s
Width : 1 920 pixels
Height : 1 080 pixels
Display aspect ratio : 16:9
Frame rate mode : Constant
Frame rate : 23.976 (24000/1001) FPS
Color space : YUV
Chroma subsampling : 4:2:0
Bit depth : 8 bits
Scan type : Progressive
Bits/(Pixel*Frame) : 0.116
Stream size : 3.88 GiB (88%)
Writing library : x264 core 155 r2901 7d0ff22
Encoding settings : cabac=1 / ref=4 / deblock=1:-3:-3 / analyse=0x3:0x133 / me=umh / subme=9 / psy=1 / psy_rd=1.10:0.25 / mixed_ref=1 / me_range=32 / chroma_me=1 / trellis=2 / 8x8dct=1 / cqm=0 / deadzone=6,6 / fast_pskip=1 / chroma_qp_offset=-4 / threads=34 / lookahead_threads=3 / sliced_threads=0 / nr=0 / decimate=1 / interlaced=0 / bluray_compat=0 / constrained_intra=0 / bframes=6 / b_pyramid=2 / b_adapt=2 / b_bias=0 / direct=3 / weightb=1 / open_gop=0 / weightp=2 / keyint=240 / keyint_min=24 / scenecut=40 / intra_refresh=0 / rc_lookahead=40 / rc=2pass / mbtree=1 / bitrate=5760 / ratetol=1.0 / qcomp=0.60 / qpmin=0 / qpmax=69 / qpstep=4 / cplxblur=20.0 / qblur=0.5 / vbv_maxrate=20000 / vbv_bufsize=25000 / nal_hrd=none / filler=0 / ip_ratio=1.40 / aq=1:1.00
Language : English
Default : Yes
Forced : No
Color range : Limited
Color primaries : BT.709
Transfer characteristics : BT.709
Matrix coefficients : BT.709
Statistics Tags Issue : mkvmerge v47.0.0 ('Black Flag') 64-bit 2020-09-15 01:57:45 / mkvmerge v47.0.0 ('Black Flag') 64-bit 2020-09-15 01:57:45 / UTC 2020-09-13T01:01:29Z
FromStats_BitRate : 5753702
FromStats_Duration : 01:38:44.919000000
FromStats_FrameCount : 142056
FromStats_StreamSize : 4261277471

Audio #1
ID : 2
Format : AC-3
Format/Info : Audio Coding 3
Format settings, Endianness : Big
Codec ID : A_AC3
Duration : 1 h 38 min
Bit rate mode : Constant
Bit rate : 448 kb/s
Channel(s) : 6 channels
Channel positions : Front: L C R, Side: L R, LFE
Sampling rate : 48.0 kHz
Frame rate : 31.250 FPS (1536 SPF)
Bit depth : 16 bits
Compression mode : Lossy
Stream size : 316 MiB (7%)
Title : Surround
Language : English
Service kind : Complete Main
Default : Yes
Forced : No
Statistics Tags Issue : mkvmerge v47.0.0 ('Black Flag') 64-bit 2020-09-15 01:57:45 / mkvmerge v47.0.0 ('Black Flag') 64-bit 2020-09-15 01:57:45 / UTC 2020-09-13T01:01:29Z
FromStats_BitRate : 448000
FromStats_Duration : 01:38:44.928000000
FromStats_FrameCount : 185154
FromStats_StreamSize : 331795968

Audio #2
ID : 3
Format : AC-3
Format/Info : Audio Coding 3
Format settings, Endianness : Big
Codec ID : A_AC3
Duration : 1 h 38 min
Bit rate mode : Constant
Bit rate : 192 kb/s
Channel(s) : 2 channels
Channel positions : Front: L R
Sampling rate : 48.0 kHz
Frame rate : 31.250 FPS (1536 SPF)
Bit depth : 16 bits
Compression mode : Lossy
Stream size : 136 MiB (3%)
Title : Stereo commentary
Language : English
Service kind : Complete Main
Default : No
Forced : No
Statistics Tags Issue : mkvmerge v47.0.0 ('Black Flag') 64-bit 2020-09-15 01:57:45 / mkvmerge v47.0.0 ('Black Flag') 64-bit 2020-09-15 01:57:45 / UTC 2020-09-13T01:01:29Z
FromStats_BitRate : 192000
FromStats_Duration : 01:38:44.928000000
FromStats_FrameCount : 185154
FromStats_StreamSize : 142198272

Text
ID : 4
Format : UTF-8
Codec ID : S_TEXT/UTF8
Codec ID/Info : UTF-8 Plain Text
Language : English
Default : Yes
Forced : No
Statistics Tags Issue : mkvmerge v47.0.0 ('Black Flag') 64-bit 2020-09-15 01:57:45 / mkvmerge v47.0.0 ('Black Flag') 64-bit 2020-09-15 01:57:45 / UTC 2020-09-13T01:01:29Z
FromStats_BitRate : 64
FromStats_Duration : 01:36:22.642000000
FromStats_FrameCount : 1339
FromStats_StreamSize : 46765

Menu
00:00:00.000 : :Chapter 1
00:08:32.178 : :Chapter 2
00:18:14.260 : :Chapter 3
00:25:15.431 : :Chapter 4
00:32:53.096 : :Chapter 5
00:42:47.106 : :Chapter 6
00:50:28.776 : :Chapter 7
00:58:41.685 : :Chapter 8
01:05:59.956 : :Chapter 9
01:19:31.475 : :Chapter 10
01:27:58.690 : :Chapter 11
01:36:45.300 : :Chapter 12





Assault on Wall Street (2013)


Assault on Wall Street (2013)


Assault on Wall Street (2013)


Assault on Wall Street (2013)


Assault on Wall Street (2013)