PBS - American Experience: Influenza 1918 (2018)

Posted By: notbanned
720p (HD) / WEB-DL
PBS - American Experience: Influenza 1918 (2018)

PBS - American Experience: Influenza 1918 (2018)
WEB-DL | 1280x720 | .MKV/AVC @ 4500 Kbps | 51 min 31 s | 1.65 GiB
Audio: English AAC 93.4 kbps, 2 channels | Subs: None
Genre: Documentary

As the nation mobilized for war in the spring of 1918, ailing Private Albert Gitchell reported to an army hospital in Kansas. He was diagnosed with the flu, a disease about which doctors knew little. Before the year was out, America would be ravaged by a flu epidemic that killed 675,000 people–more than died in all the wars of this century combined–before disappearing as mysteriously as it began.

General
Unique ID : 315590683968384438693871802147373555930 (0xED6C8E0A276535F80CB2BCC1A413A0DA)
Complete name : American.Experience.Influenza.1918.720p.mkv
Format : Matroska
Format version : Version 4 / Version 2
File size : 1.65 GiB
Duration : 51 min 31 s
Overall bit rate : 4 584 kb/s

Video
ID : 1
Format : AVC
Format/Info : Advanced Video Codec
Format profile : High@L3.1
Format settings, CABAC : Yes
Format settings, ReFrames : 3 frames
Codec ID : V_MPEG4/ISO/AVC
Duration : 51 min 31 s
Bit rate mode : Constant
Bit rate : 4 500 kb/s
Width : 1 280 pixels
Height : 720 pixels
Display aspect ratio : 16:9
Frame rate mode : Constant
Frame rate : 29.970 (30000/1001) FPS
Color space : YUV
Chroma subsampling : 4:2:0
Bit depth : 8 bits
Scan type : Progressive
Bits/(Pixel*Frame) : 0.163
Stream size : 1.62 GiB (98%)
Default : Yes
Forced : No

Audio
ID : 2
Format : AAC
Format/Info : Advanced Audio Codec
Format profile : LC
Codec ID : A_AAC
Duration : 51 min 31 s
Bit rate : 93.4 kb/s
Channel(s) : 2 channels
Channel positions : Front: L R
Sampling rate : 48.0 kHz
Frame rate : 46.875 FPS (1024 spf)
Compression mode : Lossy
Delay relative to video : -33 ms
Stream size : 34.4 MiB (2%)
Language : English
Default : Yes
Forced : No


Screenshots:

PBS - American Experience: Influenza 1918 (2018)

PBS - American Experience: Influenza 1918 (2018)

PBS - American Experience: Influenza 1918 (2018)

PBS - American Experience: Influenza 1918 (2018)