Please register here if you want to download anything!

If domain in your address bar is different from the list below
PLEASE LEAVE THAT SITE IMMEDIATELY
❗IT'S A DANGEROUS FAKE❗



Spicy Magazines for Men! ;-)

Alternate Endings: Six New Ways to Die in America (2019) + [Extra Content]

Posted By: Without
1080p (FullHD) / WEB-DL IMDb
Alternate Endings: Six New Ways to Die in America (2019) + [Extra Content]

Alternate Endings: Six New Ways to Die in America (2019)
WEB-DL | MKV | 1 h 8 min | 898 MB | 720x404 | AVC@1703 kb/s | English AAC@128 kb/s, 2 ch
WEB-DL 720p | MKV | 1 h 8 min | 2.77 GB | 1280x720 | AVC@5152 kb/s | English AC3@640 kb/s, 6 ch
WEB-DL 1080p | MKV | 1 h 8 min | 4.66 GB | 1920x1080 | AVC@9093 kb/s | English AC3@640 kb/s, 6 ch
Subs: English
Genre: Crime, Horror, Mystery

An exploration of the changing attitudes in the United States surrounding death, including the ways it is recognized today and how many approach the end of life.



General
Alternate.Endings.Six.New.Ways.to.Die.in.America.2019.AMZN.WEB-DL.AAC2.0.H.264-NTG.mkv
Format : Matroska
Format version : Version 4 / Version 2
File size : 898 MB
Duration : 1 h 8 min
Overall bit rate : 1833 kb/s
Encoded date : UTC 2019-08-15 00:12:57
Writing application : mkvmerge v21.0.0 ('Tardigrades Will Inherit The Earth') 64-bit
Writing library : libebml v1.3.5 + libmatroska v1.4.8

Video
ID : 1
Format : AVC
Format/Info : Advanced Video Codec
Format profile : Main@L3
Format settings, CABAC : Yes
Format settings, ReFrames : 4 frames
Codec ID : V_MPEG4/ISO/AVC
Duration : 1 h 8 min
Bit rate mode : Constant
Bit rate : 1703 kb/s
Nominal bit rate : 2000 kb/s
Width : 720 pixels
Height : 404 pixels
Display aspect ratio : 16:9
Frame rate mode : Constant
Frame rate : 23.976 (24000/1001) FPS
Color space : YUV
Chroma subsampling : 4:2:0
Bit depth : 8 bits
Scan type : Progressive
Bits/(Pixel*Frame) : 0.244
Stream size : 834 MB (93%)
Default : Yes
Forced : No
Color range : Limited
Color primaries : BT.709
Transfer characteristics : BT.709
Matrix coefficients : BT.709

Audio
ID : 2
Format : AAC
Format/Info : Advanced Audio Codec
Format profile : LC
Codec ID : A_AAC
Duration : 1 h 8 min
Bit rate : 128 kb/s
Channel(s) : 2 channels
Channel positions : Front: L R
Sampling rate : 48.0 kHz
Frame rate : 46.875 FPS (1024 spf)
Compression mode : Lossy
Stream size : 62.7 MB (7%)
Language : English
Default : Yes
Forced : No

Text #1
ID : 3
Format : UTF-8
Codec ID : S_TEXT/UTF8
Codec ID/Info : UTF-8 Plain Text
Duration : 1 h 6 min
Bit rate : 69 b/s
Count of elements : 1030
Stream size : 34.0 KiB (0%)
Language : English
Default : No
Forced : No

Text #2
ID : 4
Format : UTF-8
Codec ID : S_TEXT/UTF8
Codec ID/Info : UTF-8 Plain Text
Duration : 1 h 7 min
Bit rate : 69 b/s
Count of elements : 1105
Stream size : 34.5 KiB (0%)
Title : SDH
Language : English
Default : No
Forced : No


General
Alternate.Endings.Six.New.Ways.to.Die.in.America.2019.720p.AMZN.WEB-DL.DDP5.1.H.264-NTG.mkv
Format : Matroska
Format version : Version 4 / Version 2
File size : 2.77 GB
Duration : 1 h 8 min
Overall bit rate : 5794 kb/s
Encoded date : UTC 2019-08-15 00:11:41
Writing application : mkvmerge v21.0.0 ('Tardigrades Will Inherit The Earth') 64-bit
Writing library : libebml v1.3.5 + libmatroska v1.4.8

Video
ID : 1
Format : AVC
Format/Info : Advanced Video Codec
Format profile : High@L3.1
Format settings, CABAC : Yes
Format settings, ReFrames : 4 frames
Codec ID : V_MPEG4/ISO/AVC
Duration : 1 h 8 min
Bit rate mode : Constant
Bit rate : 5152 kb/s
Nominal bit rate : 6000 kb/s
Width : 1280 pixels
Height : 720 pixels
Display aspect ratio : 16:9
Frame rate mode : Constant
Frame rate : 23.976 (24000/1001) FPS
Color space : YUV
Chroma subsampling : 4:2:0
Bit depth : 8 bits
Scan type : Progressive
Bits/(Pixel*Frame) : 0.233
Stream size : 2.46 GB (89%)
Default : Yes
Forced : No
Color range : Limited
Color primaries : BT.709
Transfer characteristics : BT.709
Matrix coefficients : BT.709

Audio
ID : 2
Format : E-AC-3
Format/Info : Enhanced Audio Coding 3
Format settings, Endianness : Big
Codec ID : A_EAC3
Duration : 1 h 8 min
Bit rate mode : Constant
Bit rate : 640 kb/s
Channel(s) : 6 channels
Channel positions : Front: L C R, Side: L R, LFE
Sampling rate : 48.0 kHz
Frame rate : 187.500 FPS (256 spf)
Compression mode : Lossy
Stream size : 314 MB (11%)
Language : English
Default : Yes
Forced : No

Text #1
ID : 3
Format : UTF-8
Codec ID : S_TEXT/UTF8
Codec ID/Info : UTF-8 Plain Text
Duration : 1 h 6 min
Bit rate : 69 b/s
Count of elements : 1030
Stream size : 34.0 KiB (0%)
Language : English
Default : No
Forced : No

Text #2
ID : 4
Format : UTF-8
Codec ID : S_TEXT/UTF8
Codec ID/Info : UTF-8 Plain Text
Duration : 1 h 7 min
Bit rate : 69 b/s
Count of elements : 1105
Stream size : 34.5 KiB (0%)
Title : SDH
Language : English
Default : No
Forced : No


General
Alternate.Endings.Six.New.Ways.to.Die.in.America.2019.1080p.AMZN.WEB-DL.DDP5.1.H.264-NTG.mkv
Format : Matroska
Format version : Version 4 / Version 2
File size : 4.66 GB
Duration : 1 h 8 min
Overall bit rate : 9735 kb/s
Encoded date : UTC 2019-08-15 00:07:14
Writing application : mkvmerge v21.0.0 ('Tardigrades Will Inherit The Earth') 64-bit
Writing library : libebml v1.3.5 + libmatroska v1.4.8

Video
ID : 1
Format : AVC
Format/Info : Advanced Video Codec
Format profile : High@L4
Format settings, CABAC : Yes
Format settings, ReFrames : 4 frames
Codec ID : V_MPEG4/ISO/AVC
Duration : 1 h 8 min
Bit rate mode : Constant
Bit rate : 9093 kb/s
Nominal bit rate : 10000 kb/s
Width : 1920 pixels
Height : 1080 pixels
Display aspect ratio : 16:9
Frame rate mode : Constant
Frame rate : 23.976 (24000/1001) FPS
Color space : YUV
Chroma subsampling : 4:2:0
Bit depth : 8 bits
Scan type : Progressive
Bits/(Pixel*Frame) : 0.183
Stream size : 4.35 GB (93%)
Default : Yes
Forced : No
Color range : Limited
Color primaries : BT.709
Transfer characteristics : BT.709
Matrix coefficients : BT.709

Audio
ID : 2
Format : E-AC-3
Format/Info : Enhanced Audio Coding 3
Format settings, Endianness : Big
Codec ID : A_EAC3
Duration : 1 h 8 min
Bit rate mode : Constant
Bit rate : 640 kb/s
Channel(s) : 6 channels
Channel positions : Front: L C R, Side: L R, LFE
Sampling rate : 48.0 kHz
Frame rate : 187.500 FPS (256 spf)
Compression mode : Lossy
Stream size : 314 MB (7%)
Language : English
Default : Yes
Forced : No

Text #1
ID : 3
Format : UTF-8
Codec ID : S_TEXT/UTF8
Codec ID/Info : UTF-8 Plain Text
Duration : 1 h 6 min
Bit rate : 69 b/s
Count of elements : 1030
Stream size : 34.0 KiB (0%)
Language : English
Default : No
Forced : No

Text #2
ID : 4
Format : UTF-8
Codec ID : S_TEXT/UTF8
Codec ID/Info : UTF-8 Plain Text
Duration : 1 h 7 min
Bit rate : 69 b/s
Count of elements : 1105
Stream size : 34.5 KiB (0%)
Title : SDH
Language : English
Default : No
Forced : No



WEB-DL Screenshots

Alternate Endings: Six New Ways to Die in America (2019) + [Extra Content]

Alternate Endings: Six New Ways to Die in America (2019) + [Extra Content]

Alternate Endings: Six New Ways to Die in America (2019) + [Extra Content]


WEB-DL 720p Screenshots

Alternate Endings: Six New Ways to Die in America (2019) + [Extra Content]

Alternate Endings: Six New Ways to Die in America (2019) + [Extra Content]

Alternate Endings: Six New Ways to Die in America (2019) + [Extra Content]


WEB-DL 1080p Screenshots

Alternate Endings: Six New Ways to Die in America (2019) + [Extra Content]

Alternate Endings: Six New Ways to Die in America (2019) + [Extra Content]

Alternate Endings: Six New Ways to Die in America (2019) + [Extra Content]


Come Visit My Blog (•‿•)